<th id="thxwy"><option id="thxwy"></option></th>

      <tr id="thxwy"></tr>

    1. 最近看过此主题的会员

      查看: 3615|回复: 27
      打印 上一主题 下一主题

      原抓:周蕙《精选情歌经典1》 [WAV/CUE/百度]

      [复制链接]

      422

      主题

      861

      帖子

      4万

      积分

      天王巨星

      Rank: 7Rank: 7Rank: 7

      积分
      45613

      社区QQ达人灌水勋章分享勋章

      跳转到指定楼层
      1#
      发表于 2015-8-21 18:39:37 | 只看该作者 |只看大图 回帖奖励 |倒序浏览 |阅读模式
      购买主题 已有 26 人购买  本主题需向作者支付 50 碟CD 才能浏览




      DTS-雷婷《女人的等待2CD》[WAV】
      群星 《爱情红绿灯 2CD》DTS-WAV/分轨/快传+百度

      422

      主题

      861

      帖子

      4万

      积分

      天王巨星

      Rank: 7Rank: 7Rank: 7

      积分
      45613

      社区QQ达人灌水勋章分享勋章

      2#
       楼主| 发表于 2015-8-21 18:39:38 | 只看该作者
      本帖最后由 微笑面对 于 2015-8-21 15:44 编辑
      Exact Audio Copy V1.0 beta 3 from 29. August 2011
      EAC 抓取日志文件从21. 八月 2015, 13:52
      周慧 / 周蕙《精选 情歌经典1》
      使用驱动器  :HL-DT-STDVDROM DH18NS40   Adapter: 2  ID: 0
      读取模式 : 快速
      读取偏移校正:               : 0
      读取 Lead-In 和 Lead-Out : 否
      用静音填充抓取中丢失偏移的采样       : 是
      去除首尾静音块               : 否
      在CRC 计算中使用了空样本       : 是
      已用接口                  : Win NT 及 2000 本地 Win32 接口
      所用输出模式: : 内部 WAV 函数
      样本格式    : 44.100 Hz; 16 Bit; 立体声
      已抓取 CD 的 TOC
           音轨 |    起始    |    长度    |  起始扇区  |  结束扇区  
          --------------------------------------------
            1 |  0:00.00 |  4:28.20 |      0 |  20119
            2 |  4:28.20 |  4:22.30 |  20120 |  39799
            3 |  8:50.50 |  4:36.67 |  39800 |  60566
            4 | 13:27.42 |  4:36.73 |  60567 |  81339
            5 | 18:04.40 |  3:31.35 |  81340 |  97199
            6 | 21:36.00 |  4:42.22 |  97200 | 118371
            7 | 26:18.22 |  5:21.10 | 118372 | 142456
            8 | 31:39.32 |  4:45.40 | 142457 | 163871
            9 | 36:24.72 |  5:18.05 | 163872 | 187726
           10 | 41:43.02 |  5:00.13 | 187727 | 210239
           11 | 46:43.15 |  5:28.27 | 210240 | 234866
      范围状态及错误
      已选择范围
           文件名 F:\周慧 - 周蕙《精选 情歌经典1》.wav
           峰值电平 99.8 %
           抓取速度 2.5 X
           复制 CRC 6C95D4B1
           复制成功
      没有错误发生
      状态报告结尾

      422

      主题

      861

      帖子

      4万

      积分

      天王巨星

      Rank: 7Rank: 7Rank: 7

      积分
      45613

      社区QQ达人灌水勋章分享勋章

      3#
       楼主| 发表于 2015-8-21 18:39:39 | 只看该作者



      integral

      0

      主题

      21

      帖子

      382

      积分

      乐坛新星

      Rank: 2

      积分
      382

      社区QQ达人

      4#
      发表于 2015-8-21 23:13:33 | 只看该作者
      曾经的经典专辑,好啊楼主。。。。。。。
      integral

      0

      主题

      21

      帖子

      382

      积分

      乐坛新星

      Rank: 2

      积分
      382

      社区QQ达人

      5#
      发表于 2015-8-21 23:14:39 | 只看该作者
      曾经的经典专辑,好啊楼主。。。。。。。

      1

      主题

      108

      帖子

      589

      积分

      职业歌手

      Rank: 3Rank: 3

      积分
      589

      社区QQ达人

      6#
      发表于 2015-8-22 08:37:20 | 只看该作者
      价值不菲?。。?!还是要感谢?。?!
      integral

      0

      主题

      278

      帖子

      -881

      积分

      恶意回复被扣没分了,积分增加方法见置顶帖

      积分
      -881
      7#
      发表于 2015-8-22 09:50:30 | 只看该作者
      谢谢楼主的分享,楼主辛苦了

      1

      主题

      43

      帖子

      262

      积分

      乐坛新星

      Rank: 2

      积分
      262

      社区QQ达人

      8#
      发表于 2015-8-26 23:06:12 | 只看该作者
      请问楼主此CD是什么地区发行的?什么唱片公司出的?

      0

      主题

      350

      帖子

      81

      积分

      新人会员,请认真回复,若恶意回复,直接封号

      Rank: 1

      积分
      81

      社区QQ达人

      9#
      发表于 2015-8-28 15:47:11 | 只看该作者
      绝对要赞一个啊哈哈哈,很不错的专辑

      1

      主题

      1234

      帖子

      1216

      积分

      VIP3

      Rank: 6Rank: 6

      积分
      1216
      10#
      发表于 2015-9-1 07:58:10 | 只看该作者
      约定成就了周慧,可惜签约问题让她错过了

      1

      主题

      834

      帖子

      1775

      积分

      当红偶像

      Rank: 4

      积分
      1775

      灌水勋章

      11#
      发表于 2015-9-1 08:06:54 | 只看该作者
      好东西哦
      又发现了她的
      推荐大家下载 王菲的感觉

      0

      主题

      70

      帖子

      99

      积分

      新人会员,请认真回复,若恶意回复,直接封号

      Rank: 1

      积分
      99
      12#
      发表于 2015-9-13 14:18:34 | 只看该作者
      喜欢她的歌,温柔动人心。感谢分享。

      0

      主题

      74

      帖子

      162

      积分

      乐坛新星

      Rank: 2

      积分
      162
      13#
      发表于 2015-9-13 19:33:15 | 只看该作者
      喜欢她的歌,温柔动人心。感谢分享。

      0

      主题

      495

      帖子

      398

      积分

      乐坛新星

      Rank: 2

      积分
      398
      14#
      发表于 2015-9-28 11:32:41 | 只看该作者
      有磁带的,谢谢分享高音质?。?!
      integral

      0

      主题

      315

      帖子

      107

      积分

      新人会员,请认真回复,若恶意回复,直接封号

      Rank: 1

      积分
      107

      社区QQ达人

      15#
      发表于 2015-10-1 16:06:50 | 只看该作者
      你我约定,难过的往事不许提。。。
      您需要登录后才可以回帖 登录 | 注册

      本版积分规则

      快速回复 返回顶部 返回列表
      最精准免费平特一肖-最精准平特一肖-最快开奖报码