<th id="thxwy"><option id="thxwy"></option></th>

      <tr id="thxwy"></tr>

    1. 最近看过此主题的会员

      查看: 355|回复: 0
      打印 上一主题 下一主题

      [华语] 原抓:群星《三里屯音乐之我的祖国》2005/WAV_整轨/度盘

      [复制链接]
       成长值: 4590

      31

      主题

      161

      帖子

      1万

      积分

      VIP4

      Rank: 7Rank: 7Rank: 7

      积分
      16194
      跳转到指定楼层
      1#
      发表于 2019-4-6 16:32:53 | 只看该作者 |只看大图 回帖奖励 |倒序浏览 |阅读模式

      注册会员,获得无损资源下载地址,享受高品质音乐。

      您需要 登录 才可以下载或查看,没有帐号?注册

      x
      CD
      碟数: 1
      出版社: 内蒙古文化音像出版社
      版权提供: 北京太合麦田音乐文化发展有限公司
      条形码: 9787883167624
      ISRC: CNC180540100
      ASIN: B00118NI7C


      内容介绍

      《三里屯音乐之我的祖国》选择了新中国成立后最为传唱的部分歌曲进行重新编配演绎。歌手阵容方面除却“三里屯唱将”之外,太合麦田其他知名艺人如张亚东、满文军、麦田守望者、钟立风等也纷纷主动请缨参与了专辑的录制。

      专辑中所有歌曲根据演唱者的音乐特质作了全新的编配,在不失原曲精髓的基础上更多的植入了新世纪年轻人所独有的朝气与时代感,用最富有新纪元的音乐元素向红色经典、向老一辈艺术家们致敬。

      弘扬爱国主义,重拾经典老歌。

      一张向“流金岁月”致敬的专辑!一张表达中国流行音乐人爱乐更爱国的倾心之作!一张创意十足却不输经典的新概念翻唱专辑!本专辑中满文军演绎的“乡恋”、钟立风诠释的“大海啊,故乡”、麦田守望者气质的“太阳岛上”都是本合辑最为引人的亮点。本专辑无疑将使人们再度回顾经典的同时迎来新的光辉岁月。

      八卦下:唐红(唐荭菲)参加中国好声音;孙晓亮(孙伯纶)参加快乐男声、声动亚洲;老五参加中国最强音;丢丢参加超女、快女。

      01 我的祖国 唐红、李森、孙晓亮、石珍
      02 乡恋 满文军
      03 赞歌 老五
      04 红星歌、共产儿童团歌 蛋糕炸弹
      05 垄上行 李晓东
      06 太阳岛上 麦田守望者
      07 大海啊,故乡 钟立风
      08 梦驼铃 潘艺&郑海龙
      09 请到天涯海角来 丢丢
      10 故乡的云 风林火山
      游客,如果您要查看本帖隐藏内容请回复

      1. Exact Audio Copy V1.3 from 2. September 2016

      2. EAC 抓取日志文件从6. 四月 2019, 14:54

      3. Various Artists / 三里屯音乐之我的祖国

      4. 使用驱动器  :Optiarc DVD RW AD-7730U   Adapter: 1  ID: 0

      5. 读取模式      : 可靠Secure
      6. 使用精确流     : 是
      7. 清空音频缓存    : 否
      8. 使用 C2 指示器 : 是

      9. 读取偏移校正:               : 6
      10. 读取 Lead-In 和 Lead-Out : 否
      11. 用静音填充抓取中丢失偏移的采样       : 是
      12. 去除首尾静音块               : 否
      13. 在CRC 计算中使用了空样本       : 是
      14. 已用接口                  : Win NT 及 2000 本地 Win32 接口

      15. 所用输出模式: : 内部 WAV 函数
      16. 样本格式    : 44.100 Hz; 16 Bit; 立体声


      17. 已抓取 CD 的 TOC

      18.      音轨 |    起始    |    长度    |  起始扇区  |  结束扇区  
      19.     --------------------------------------------
      20.       1 |  0:00.00 |  5:16.29 |      0 |  23728
      21.       2 |  5:16.29 |  3:35.12 |  23729 |  39865
      22.       3 |  8:51.41 |  3:59.51 |  39866 |  57841
      23.       4 | 12:51.17 |  3:30.70 |  57842 |  73661
      24.       5 | 16:22.12 |  4:23.66 |  73662 |  93452
      25.       6 | 20:46.03 |  3:38.06 |  93453 | 109808
      26.       7 | 24:24.09 |  2:48.55 | 109809 | 122463
      27.       8 | 27:12.64 |  3:45.68 | 122464 | 139406
      28.       9 | 30:58.57 |  3:21.06 | 139407 | 154487
      29.      10 | 34:19.63 |  4:15.48 | 154488 | 173660


      30. 范围状态及错误

      31. 已选择范围

      32.      文件名 G:\EAC\群星 - 2005《三里屯音乐之我的祖国》[WAV整轨]\Various Artists - 三里屯音乐之我的祖国.wav

      33.      峰值电平 100.0 %
      34.      抓取速度 9.6 X
      35.      范围质量 100.0 %
      36.      复制 CRC AADB7E7B
      37.      复制成功

      38. 没有错误发生


      39. AccurateRip 摘要

      40. 音轨  1  在数据库中不存在
      41. 音轨  2  在数据库中不存在
      42. 音轨  3  在数据库中不存在
      43. 音轨  4  在数据库中不存在
      44. 音轨  5  在数据库中不存在
      45. 音轨  6  在数据库中不存在
      46. 音轨  7  在数据库中不存在
      47. 音轨  8  在数据库中不存在
      48. 音轨  9  在数据库中不存在
      49. 音轨 10  在数据库中不存在

      50. 没有任何音轨在 AccurateRip 数据库中有记录

      51. 状态报告结尾

      52. ---- CUETools DB Plugin V2.1.6

      53. [CTDB TOCID: o_eYs5VIB5MZmx6xLsLkxj6xRGA-] disk not present in database
      54. Submit result: o_eYs5VIB5MZmx6xLsLkxj6xRGA- has been uploaded
      复制代码


      评分

      参与人数 1CD +240 收起 理由
      最终之战 + 240 感谢分享资源,CD包因你而精彩.

      查看全部评分





      原抓:新工人艺术团《家在哪里》2013/WAV_整轨/度盘
      原抓:无相乐队Alaksana《无相乐队Alaksana》2018/WAV_整轨/度盘
      您需要登录后才可以回帖 登录 | 注册

      本版积分规则

      快速回复 返回顶部 返回列表
      最精准免费平特一肖-最精准平特一肖-最快开奖报码