<th id="thxwy"><option id="thxwy"></option></th>

      <tr id="thxwy"></tr>

    1. 最近看过此主题的会员

      查看: 292|回复: 2
      打印 上一主题 下一主题

      [华语] 原抓:无相乐队Alaksana《无相乐队Alaksana》2018/WAV_整轨/度盘

      [复制链接]
       成长值: 4005

      31

      主题

      161

      帖子

      1万

      积分

      VIP4

      Rank: 7Rank: 7Rank: 7

      积分
      16187
      跳转到指定楼层
      1#
      发表于 2019-4-7 08:10:19 | 只看该作者 |只看大图 回帖奖励 |倒序浏览 |阅读模式

      注册会员,获得无损资源下载地址,享受高品质音乐。

      您需要 登录 才可以下载或查看,没有帐号?注册

      x
      表演者: 無相
      流派: 摇滚
      专辑类型: 专辑
      介质: CD
      发行时间: 2018-10-21
      出版者: Infected Blood Records
      唱片数: 1
      条形码: 2018102122214


      简介  · · · · · ·
        由原Seventh Army乐队成员老七的个人国风黑金属计划“无相”(Alaksana)的首张专辑,创作灵感来自于中国传统民俗文化与宗教文化,无相指没有形迹和具体形象,为道家形容“道”的玄虚无形之语。
        专辑中的人声部分邀请到了虚极乐队主唱水树、Nower/诺尔乐队主唱张经天、DuskyStar/暗星乐队主唱李维安 、Ephemerality/朝生暮死乐队主唱缇娜、圣殿骑士乐队主唱毁怜 、DeathPenalty/死刑乐队贝司胡晓旭、Dashengun/大神棍乐队主唱六筒等来演唱。封绘与设计由摇客家完成。
      曲目  · · · · · ·
      01. 离魂
      02. 药师
      03. 引客
      04. 凄风
      05. 长生
      06. 紧那罗
      07. 撞客
      08. 出山
      09. 大自在
      10. 三宝梵呗
      11. 那落迦舞
      12. 陶尼拉       
      游客,如果您要查看本帖隐藏内容请回复

      1. Exact Audio Copy V1.3 from 2. September 2016

      2. EAC 抓取日志文件从6. 四月 2019, 16:03

      3. 无相乐队Alaksana / 无相Alaksana

      4. 使用驱动器  :Optiarc DVD RW AD-7730U   Adapter: 1  ID: 0

      5. 读取模式      : 可靠Secure
      6. 使用精确流     : 是
      7. 清空音频缓存    : 否
      8. 使用 C2 指示器 : 是

      9. 读取偏移校正:               : 6
      10. 读取 Lead-In 和 Lead-Out : 否
      11. 用静音填充抓取中丢失偏移的采样       : 是
      12. 去除首尾静音块               : 否
      13. 在CRC 计算中使用了空样本       : 是
      14. 已用接口                  : Win NT 及 2000 本地 Win32 接口

      15. 所用输出模式: : 内部 WAV 函数
      16. 样本格式    : 44.100 Hz; 16 Bit; 立体声


      17. 已抓取 CD 的 TOC

      18.      音轨 |    起始    |    长度    |  起始扇区  |  结束扇区  
      19.     --------------------------------------------
      20.       1 |  0:00.00 |  1:48.00 |      0 |   8099
      21.       2 |  1:48.00 |  2:44.00 |   8100 |  20399
      22.       3 |  4:32.00 |  3:42.45 |  20400 |  37094
      23.       4 |  8:14.45 |  4:26.00 |  37095 |  57044
      24.       5 | 12:40.45 |  2:51.32 |  57045 |  69901
      25.       6 | 15:32.02 |  3:48.00 |  69902 |  87001
      26.       7 | 19:20.02 |  2:22.00 |  87002 |  97651
      27.       8 | 21:42.02 |  3:57.11 |  97652 | 115437
      28.       9 | 25:39.13 |  4:57.51 | 115438 | 137763
      29.      10 | 30:36.64 |  2:31.03 | 137764 | 149091
      30.      11 | 33:07.67 |  2:17.63 | 149092 | 159429
      31.      12 | 35:25.55 |  2:26.39 | 159430 | 170418


      32. 范围状态及错误

      33. 已选择范围

      34.      文件名 G:\EAC\无相乐队Alaksana - 2018《无相Alaksana》[WAV整轨]\无相乐队Alaksana - 无相Alaksana.wav

      35.      峰值电平 100.0 %
      36.      抓取速度 4.9 X
      37.      范围质量 100.0 %
      38.      复制 CRC EB22B162
      39.      复制成功

      40. 没有错误发生


      41. AccurateRip 摘要

      42. 音轨  1  在数据库中不存在
      43. 音轨  2  在数据库中不存在
      44. 音轨  3  在数据库中不存在
      45. 音轨  4  在数据库中不存在
      46. 音轨  5  在数据库中不存在
      47. 音轨  6  在数据库中不存在
      48. 音轨  7  在数据库中不存在
      49. 音轨  8  在数据库中不存在
      50. 音轨  9  在数据库中不存在
      51. 音轨 10  在数据库中不存在
      52. 音轨 11  在数据库中不存在
      53. 音轨 12  在数据库中不存在

      54. 没有任何音轨在 AccurateRip 数据库中有记录

      55. 状态报告结尾

      56. ---- CUETools DB Plugin V2.1.6

      57. [CTDB TOCID: KRTnIzARlNnAMxZ0G3mRzeVHPI8-] found
      58. Submit result: KRTnIzARlNnAMxZ0G3mRzeVHPI8- has been confirmed
      59. Track | CTDB Status
      60.   1   | (2/2) Accurately ripped
      61.   2   | (2/2) Accurately ripped
      62.   3   | (2/2) Accurately ripped
      63.   4   | (2/2) Accurately ripped
      64.   5   | (2/2) Accurately ripped
      65.   6   | (2/2) Accurately ripped
      66.   7   | (2/2) Accurately ripped
      67.   8   | (2/2) Accurately ripped
      68.   9   | (2/2) Accurately ripped
      69. 10   | (2/2) Accurately ripped
      70. 11   | (2/2) Accurately ripped
      71. 12   | (2/2) Accurately ripped
      复制代码


      评分

      参与人数 1CD +240 收起 理由
      最终之战 + 240

      查看全部评分





      原抓:群星《三里屯音乐之我的祖国》2005/WAV_整轨/度盘
      飞鱼原抓:*NSYNC/Britney Spears《Your #1 Requests... And More!》2000

      97

      主题

      483

      帖子

      4万

      积分

      天王巨星

      Rank: 7Rank: 7Rank: 7

      积分
      48378
      QQ
      2#
      发表于 2019-4-7 14:47:07 | 只看该作者
      这张专辑很入耳,编曲强大,沙发了,已有来支持一个。

      110

      主题

      1607

      帖子

      4万

      积分

      天王巨星

      Rank: 7Rank: 7Rank: 7

      积分
      49590

      社区QQ达人

      3#
      发表于 2019-4-7 20:50:09 | 只看该作者
      下来听一个!谢谢楼主辛苦了!
      您需要登录后才可以回帖 登录 | 注册

      本版积分规则

      快速回复 返回顶部 返回列表
      最精准免费平特一肖-最精准平特一肖-最快开奖报码