<th id="thxwy"><option id="thxwy"></option></th>

      <tr id="thxwy"></tr>

    1. 最近看过此主题的会员

      查看: 406|回复: 1
      打印 上一主题 下一主题

      [华语] 原抓:群星《2013-2015 超级学校霸王精选合辑》2015/WAV_整轨/度

      [复制链接]
       成长值: 4020

      31

      主题

      161

      帖子

      1万

      积分

      VIP4

      Rank: 7Rank: 7Rank: 7

      积分
      16187
      跳转到指定楼层
      1#
      发表于 2019-4-7 21:58:55 | 只看该作者 |只看大图 回帖奖励 |倒序浏览 |阅读模式

      注册会员,获得无损资源下载地址,享受高品质音乐。

      您需要 登录 才可以下载或查看,没有帐号?注册

      x

      这张简介在网上很难搜到,呵呵!用的是虾米音乐的
      IIIIIIIIIIIIIIIIIIIIIIIIIIIIIIIIIIIIIIIIIIIIIIIIII 虾米音乐人·独家首发 IIIIIIIIIIIIIIIIIIIIIIIIIIIIIIIIIIIIIIIIIIIIIIIIII

      【2013-2015超级学校霸王精选合辑】

      不知不觉 超级学校霸王已经两周年了

      两年 曾有上百支校内外乐队参加过超霸举办的现场主题演出活动

      我们没曾想过最后会变成什么样子 最后是什么时候

      并且一直都在说这或许是个开始也有可能是个结束

      但事到如今还是想留下些东西给很多年以后的自己或者这个时代

      为此我们做了两周年欢庆演出 并且做一张两周年的合辑

      精心挑选十支乐队的优秀歌曲 祭即将逝去的青春

      这张合辑里的十支乐队你可能不曾听说过

      但我不敢保证你以后也不会听说

      就好像那所谓的爱情一样 没有把握

      却依然非常坚定的认为他们都会是明日之星

      大家可以选择在虾米下载 更可以选择购买实体盘

      望鼎力支持并喜爱



      游客,如果您要查看本帖隐藏内容请回复


      1. Exact Audio Copy V1.3 from 2. September 2016

      2. EAC 抓取日志文件从7. 四月 2019, 7:36

      3. Various / 2013-2015 超级学校霸王精选合辑

      4. 使用驱动器  :Optiarc DVD RW AD-7730U   Adapter: 1  ID: 0

      5. 读取模式      : 可靠Secure
      6. 使用精确流     : 是
      7. 清空音频缓存    : 否
      8. 使用 C2 指示器 : 是

      9. 读取偏移校正:               : 6
      10. 读取 Lead-In 和 Lead-Out : 否
      11. 用静音填充抓取中丢失偏移的采样       : 是
      12. 去除首尾静音块               : 否
      13. 在CRC 计算中使用了空样本       : 是
      14. 已用接口                  : Win NT 及 2000 本地 Win32 接口

      15. 所用输出模式: : 内部 WAV 函数
      16. 样本格式    : 44.100 Hz; 16 Bit; 立体声


      17. 已抓取 CD 的 TOC

      18.      音轨 |    起始    |    长度    |  起始扇区  |  结束扇区  
      19.     --------------------------------------------
      20.       1 |  0:00.00 |  2:19.37 |      0 |  10461
      21.       2 |  2:19.37 |  3:42.44 |  10462 |  27155
      22.       3 |  6:02.06 |  3:42.24 |  27156 |  43829
      23.       4 |  9:44.30 |  3:32.02 |  43830 |  59731
      24.       5 | 13:16.32 |  5:28.11 |  59732 |  84342
      25.       6 | 18:44.43 |  3:31.10 |  84343 | 100177
      26.       7 | 22:15.53 |  3:57.59 | 100178 | 118011
      27.       8 | 26:13.37 |  4:31.01 | 118012 | 138337
      28.       9 | 30:44.38 |  2:53.01 | 138338 | 151313
      29.      10 | 33:37.39 |  2:19.37 | 151314 | 161775


      30. 范围状态及错误

      31. 已选择范围

      32.      文件名 G:\EAC\群星 - 2015《2013-2015 超级学校霸王精选合辑》[WAV整轨]\Various - 2013-2015 超级学校霸王精选合辑.wav

      33.      峰值电平 98.9 %
      34.      抓取速度 9.5 X
      35.      范围质量 100.0 %
      36.      复制 CRC FD47E63B
      37.      复制成功

      38. 没有错误发生


      39. AccurateRip 摘要

      40. 音轨  1  在数据库中不存在
      41. 音轨  2  在数据库中不存在
      42. 音轨  3  在数据库中不存在
      43. 音轨  4  在数据库中不存在
      44. 音轨  5  在数据库中不存在
      45. 音轨  6  在数据库中不存在
      46. 音轨  7  在数据库中不存在
      47. 音轨  8  在数据库中不存在
      48. 音轨  9  在数据库中不存在
      49. 音轨 10  在数据库中不存在

      50. 没有任何音轨在 AccurateRip 数据库中有记录

      51. 状态报告结尾

      52. ---- CUETools DB Plugin V2.1.6

      53. [CTDB TOCID: oIof076NkbYNEs_W4qeckh2FVSg-] found
      54. Submit result: oIof076NkbYNEs_W4qeckh2FVSg- has been confirmed
      55. Track | CTDB Status
      56.   1   | (1/1) Accurately ripped
      57.   2   | (1/1) Accurately ripped
      58.   3   | (1/1) Accurately ripped
      59.   4   | (1/1) Accurately ripped
      60.   5   | (1/1) Accurately ripped
      61.   6   | (1/1) Accurately ripped
      62.   7   | (1/1) Accurately ripped
      63.   8   | (1/1) Accurately ripped
      64.   9   | (1/1) Accurately ripped
      65. 10   | (1/1) Accurately ripped
      复制代码

      1. REM GENRE Rock
      2. REM DATE 2015
      3. REM DISCID 89086D0A
      4. REM COMMENT "ExactAudioCopy v1.3"
      5. PERFORMER "Various"
      6. TITLE "2013-2015 超级学校霸王精选合辑"
      7. REM COMPOSER ""
      8. FILE "Various - 2013-2015 超级学校霸王精选合辑.wav" WAVE
      9.   TRACK 01 AUDIO
      10.     TITLE "我要一杯翻"
      11.     PERFORMER "中国现代人乐队"
      12.     REM COMPOSER ""
      13.     INDEX 01 00:00:00
      14.   TRACK 02 AUDIO
      15.     TITLE "GONNA SHAKE OR WANNA BREAK"
      16.     PERFORMER "热浪乐队"
      17.     REM COMPOSER ""
      18.     INDEX 01 02:19:37
      19.   TRACK 03 AUDIO
      20.     TITLE "虽然不能 POGO"
      21.     PERFORMER "而已乐队"
      22.     REM COMPOSER ""
      23.     INDEX 01 06:02:06
      24.   TRACK 04 AUDIO
      25.     TITLE "ANT`S OK"
      26.     PERFORMER "达闻西乐队"
      27.     REM COMPOSER ""
      28.     INDEX 01 09:44:30
      29.   TRACK 05 AUDIO
      30.     TITLE "走过"
      31.     PERFORMER "不明身份乐队"
      32.     REM COMPOSER ""
      33.     INDEX 01 13:16:32
      34.   TRACK 06 AUDIO
      35.     TITLE "LOST "
      36.     PERFORMER "对角巷乐队"
      37.     REM COMPOSER ""
      38.     INDEX 01 18:44:43
      39.   TRACK 07 AUDIO
      40.     TITLE "LET IT GO "
      41.     PERFORMER "硬糖革命乐队"
      42.     REM COMPOSER ""
      43.     INDEX 01 22:15:53
      44.   TRACK 08 AUDIO
      45.     TITLE "咸阳湖"
      46.     PERFORMER "鬼压床乐队"
      47.     REM COMPOSER ""
      48.     INDEX 01 26:13:37
      49.   TRACK 09 AUDIO
      50.     TITLE "HARLEY IS A FUCKING RABBIT "
      51.     PERFORMER "酒精坏名声乐队"
      52.     REM COMPOSER ""
      53.     INDEX 01 30:44:38
      54.   TRACK 10 AUDIO
      55.     TITLE "替天行道"
      56.     PERFORMER "利事乐队"
      57.     REM COMPOSER ""
      58.     INDEX 01 33:37:39
      复制代码


      评分

      参与人数 1CD +240 收起 理由
      最终之战 + 240

      查看全部评分





      飞鱼原抓:Britney Spears《...Baby One More Time》1999 整轨WAV+LOG/BD
      原抓:民谣摇滚 沙葱《值得》2009/WAV/BD

      257

      主题

      1286

      帖子

      9万

      积分

      乐坛教父

      Rank: 8Rank: 8

      积分
      96735

      社区QQ达人

      2#
      发表于 2019-4-8 04:20:50 | 只看该作者
      这个是啥啊 奇怪 下来看看 谢
      您需要登录后才可以回帖 登录 | 注册

      本版积分规则

      快速回复 返回顶部 返回列表
      最精准免费平特一肖-最精准平特一肖-最快开奖报码