<th id="thxwy"><option id="thxwy"></option></th>

      <tr id="thxwy"></tr>

    1. 最近看过此主题的会员

      查看: 275|回复: 1
      打印 上一主题 下一主题

      [华语] 原抓:糖衣娃娃《天朝梦想家》2014/WAV_整轨/度盘

      [复制链接]
       成长值: 4005

      31

      主题

      161

      帖子

      1万

      积分

      VIP4

      Rank: 7Rank: 7Rank: 7

      积分
      16187
      跳转到指定楼层
      1#
      发表于 2019-4-9 22:27:08 | 只看该作者 |只看大图 回帖奖励 |倒序浏览 |阅读模式

      注册会员,获得无损资源下载地址,享受高品质音乐。

      您需要 登录 才可以下载或查看,没有帐号?注册

      x
      糖衣娃娃乐队成立于2006年9月。新生代代表乐队。曾参加迷笛、草莓、张北草原、玩石、等音乐节及摇滚春晚等百场大型演出。07年得到世界著名音频品牌m-aduio赞助成为代言音乐人进行巡演。08年参加《你在红楼我在西游》合辑,重新演绎《西游记序曲》获第九届华语传媒音乐大奖最佳合辑提名, 6月发起合辑《听着你的歌长大-致家驹》,并在京津两地举办专场演出。2010年5月参加合辑《Tong一首歌》重新演绎圣斗士《天马座的幻想》,并进行京津专场演唱会。10年6月推出首张唱片《1983》。一经推出主打歌及mv即在各大网站点击率达几十万次,微博转发万次。12月《1983》获中国摇滚迷笛奖最佳设计提名。2011年1月参加第二届摇滚春晚,4月与“吉他中国”自主品牌Guina签约推出国内首款以乐队为主题的“1983”款电吉他,同时吉他中国作为“一元正版行动”支持单位配合此款吉他上市赞助糖衣娃娃首张唱片《1983》再版2万张以1元形式发售。7月进行“1983”全国巡演。2012年1月6月发起“这里那里”一元正版中国万里行巡演,以一元门票方式推广正版唱片,总行程超过2万公里。年底参与作家今何在话剧《悟空传》,担任音乐总监并推出同名原声唱片。2013年4月推出全新ep《出轨》,并进行新一轮百场全国巡演,同时活得中国摇滚迷笛奖最佳设计提名。年底录制新专辑《天朝梦想家》。


      1. Exact Audio Copy V1.3 from 2. September 2016

      2. EAC 抓取日志文件从9. 四月 2019, 22:05

      3. 糖衣娃娃 / 天朝梦想家

      4. 使用驱动器  :Optiarc DVD RW AD-7730U   Adapter: 1  ID: 0

      5. 读取模式      : 可靠Secure
      6. 使用精确流     : 是
      7. 清空音频缓存    : 否
      8. 使用 C2 指示器 : 是

      9. 读取偏移校正:               : 6
      10. 读取 Lead-In 和 Lead-Out : 否
      11. 用静音填充抓取中丢失偏移的采样       : 是
      12. 去除首尾静音块               : 否
      13. 在CRC 计算中使用了空样本       : 是
      14. 已用接口                  : Win NT 及 2000 本地 Win32 接口

      15. 所用输出模式: : 内部 WAV 函数
      16. 样本格式    : 44.100 Hz; 16 Bit; 立体声


      17. 已抓取 CD 的 TOC

      18.      音轨 |    起始    |    长度    |  起始扇区  |  结束扇区  
      19.     --------------------------------------------
      20.       1 |  0:00.00 |  1:24.41 |      0 |   6340
      21.       2 |  1:24.41 |  4:34.74 |   6341 |  26964
      22.       3 |  5:59.40 |  4:18.61 |  26965 |  46375
      23.       4 | 10:18.26 |  5:38.27 |  46376 |  71752
      24.       5 | 15:56.53 |  3:43.58 |  71753 |  88535
      25.       6 | 19:40.36 |  5:05.47 |  88536 | 111457
      26.       7 | 24:46.08 |  4:55.46 | 111458 | 133628
      27.       8 | 29:41.54 |  5:03.03 | 133629 | 156356
      28.       9 | 34:44.57 |  4:38.16 | 156357 | 177222
      29.      10 | 39:22.73 |  3:35.68 | 177223 | 193415


      30. 范围状态及错误

      31. 已选择范围

      32.      文件名 G:\EAC\糖衣娃娃 - 2014《天朝梦想家》[WA整轨]\糖衣娃娃 - 天朝梦想家.wav

      33.      峰值电平 100.0 %
      34.      抓取速度 9.7 X
      35.      范围质量 100.0 %
      36.      复制 CRC 7EB82420
      37.      复制成功

      38. 没有错误发生


      39. AccurateRip 摘要

      40. 音轨  1  在数据库中不存在
      41. 音轨  2  在数据库中不存在
      42. 音轨  3  在数据库中不存在
      43. 音轨  4  在数据库中不存在
      44. 音轨  5  在数据库中不存在
      45. 音轨  6  在数据库中不存在
      46. 音轨  7  在数据库中不存在
      47. 音轨  8  在数据库中不存在
      48. 音轨  9  在数据库中不存在
      49. 音轨 10  在数据库中不存在

      50. 没有任何音轨在 AccurateRip 数据库中有记录

      51. 状态报告结尾

      52. ---- CUETools DB Plugin V2.1.6

      53. [CTDB TOCID: q9r3LOzO154mSM167b3co305LMY-] found
      54. Submit result: q9r3LOzO154mSM167b3co305LMY- has been confirmed
      55. Track | CTDB Status
      56.   1   | (2/2) Accurately ripped
      57.   2   | (2/2) Accurately ripped
      58.   3   | (2/2) Accurately ripped
      59.   4   | (2/2) Accurately ripped
      60.   5   | (2/2) Accurately ripped
      61.   6   | (2/2) Accurately ripped
      62.   7   | (2/2) Accurately ripped
      63.   8   | (2/2) Accurately ripped
      64.   9   | (2/2) Accurately ripped
      65. 10   | (2/2) Accurately ripped
      复制代码
      1. REM GENRE Rock
      2. REM DATE 2014
      3. REM DISCID 8B0A120A
      4. REM COMMENT "ExactAudioCopy v1.3"
      5. PERFORMER "糖衣娃娃"
      6. TITLE "天朝梦想家"
      7. REM COMPOSER ""
      8. FILE "糖衣娃娃 - 天朝梦想家.wav" WAVE
      9.   TRACK 01 AUDIO
      10.     TITLE "燎(intro)"
      11.     PERFORMER "糖衣娃娃"
      12.     REM COMPOSER ""
      13.     INDEX 01 00:00:00
      14.   TRACK 02 AUDIO
      15.     TITLE "理想是个王八蛋"
      16.     PERFORMER "糖衣娃娃"
      17.     REM COMPOSER ""
      18.     INDEX 00 01:22:41
      19.     INDEX 01 01:24:41
      20.   TRACK 03 AUDIO
      21.     TITLE "出轨(新版)"
      22.     PERFORMER "糖衣娃娃"
      23.     REM COMPOSER ""
      24.     INDEX 00 05:57:40
      25.     INDEX 01 05:59:40
      26.   TRACK 04 AUDIO
      27.     TITLE "你好再见!"
      28.     PERFORMER "糖衣娃娃"
      29.     REM COMPOSER ""
      30.     INDEX 00 10:16:26
      31.     INDEX 01 10:18:26
      32.   TRACK 05 AUDIO
      33.     TITLE "刻刀"
      34.     PERFORMER "糖衣娃娃"
      35.     REM COMPOSER ""
      36.     INDEX 00 15:54:53
      37.     INDEX 01 15:56:53
      38.   TRACK 06 AUDIO
      39.     TITLE "我们的故事"
      40.     PERFORMER "糖衣娃娃"
      41.     REM COMPOSER ""
      42.     INDEX 00 19:38:36
      43.     INDEX 01 19:40:36
      44.   TRACK 07 AUDIO
      45.     TITLE "Long time"
      46.     PERFORMER "糖衣娃娃"
      47.     REM COMPOSER ""
      48.     INDEX 00 24:44:08
      49.     INDEX 01 24:46:08
      50.   TRACK 08 AUDIO
      51.     TITLE "这里->那里"
      52.     PERFORMER "糖衣娃娃"
      53.     REM COMPOSER ""
      54.     INDEX 00 29:39:54
      55.     INDEX 01 29:41:54
      56.   TRACK 09 AUDIO
      57.     TITLE "麻花"
      58.     PERFORMER "糖衣娃娃"
      59.     REM COMPOSER ""
      60.     INDEX 00 34:42:57
      61.     INDEX 01 34:44:57
      62.   TRACK 10 AUDIO
      63.     TITLE "天朝梦想家"
      64.     PERFORMER "糖衣娃娃"
      65.     REM COMPOSER ""
      66.     INDEX 00 39:20:73
      67.     INDEX 01 39:22:73
      复制代码
      游客,如果您要查看本帖隐藏内容请回复



      评分

      参与人数 1CD +240 收起 理由
      最终之战 + 240 感谢分享资源,CD包因你而精彩.

      查看全部评分





      原抓:民谣摇滚 沙葱《值得》2009/WAV/BD
      原抓:歇斯《响琴山》2014/WAV_整轨/度盘

      110

      主题

      1607

      帖子

      4万

      积分

      天王巨星

      Rank: 7Rank: 7Rank: 7

      积分
      49590

      社区QQ达人

      2#
      发表于 2019-4-10 09:59:38 | 只看该作者
      听听看!以前只有一张EP出轨
      您需要登录后才可以回帖 登录 | 注册

      本版积分规则

      快速回复 返回顶部 返回列表
      最精准免费平特一肖-最精准平特一肖-最快开奖报码