<th id="thxwy"><option id="thxwy"></option></th>

      <tr id="thxwy"></tr>

    1. 最近看过此主题的会员

      查看: 438|回复: 4
      打印 上一主题 下一主题

      [华语] 原抓:歇斯《响琴山》2014/WAV_整轨/度盘

      [复制链接]
       成长值: 3960

      31

      主题

      161

      帖子

      1万

      积分

      VIP4

      Rank: 7Rank: 7Rank: 7

      积分
      16187
      跳转到指定楼层
      1#
      发表于 2019-4-9 23:25:15 | 只看该作者 |只看大图 回帖奖励 |倒序浏览 |阅读模式

      注册会员,获得无损资源下载地址,享受高品质音乐。

      您需要 登录 才可以下载或查看,没有帐号?注册

      x
      表演者: 歇斯
      流派: 流行
      专辑类型: 专辑
      介质: CD
      发行时间: 2014
      出版者: 糖衣文化
      唱片数: 1
      条形码: 9787798636314



      简介  · · · · · ·
        焦作传奇吉他手“歇斯”2014年全新个人吉他专辑。

      曲目  · · · · · ·
      01 大雪来袭上州
      02 彩霞满天
      03 在路上
      04 Z
      05 Li街的故事
      06 飓风
      07 西单以南偏西
      08 响琴山
      09 你我(摇滚版)
      10 寂寞如潮
      游客,如果您要查看本帖隐藏内容请回复


      1. Exact Audio Copy V1.3 from 2. September 2016

      2. EAC 抓取日志文件从9. 四月 2019, 20:57

      3. 歇斯 / 响琴山

      4. 使用驱动器  :Optiarc DVD RW AD-7730U   Adapter: 1  ID: 0

      5. 读取模式      : 可靠Secure
      6. 使用精确流     : 是
      7. 清空音频缓存    : 否
      8. 使用 C2 指示器 : 是

      9. 读取偏移校正:               : 6
      10. 读取 Lead-In 和 Lead-Out : 否
      11. 用静音填充抓取中丢失偏移的采样       : 是
      12. 去除首尾静音块               : 否
      13. 在CRC 计算中使用了空样本       : 是
      14. 已用接口                  : Win NT 及 2000 本地 Win32 接口

      15. 所用输出模式: : 内部 WAV 函数
      16. 样本格式    : 44.100 Hz; 16 Bit; 立体声


      17. 已抓取 CD 的 TOC

      18.      音轨 |    起始    |    长度    |  起始扇区  |  结束扇区  
      19.     --------------------------------------------
      20.       1 |  0:00.00 |  6:27.45 |      0 |  29069
      21.       2 |  6:27.45 |  6:00.36 |  29070 |  56105
      22.       3 | 12:28.06 |  4:58.51 |  56106 |  78506
      23.       4 | 17:26.57 |  4:53.35 |  78507 | 100516
      24.       5 | 22:20.17 |  5:36.46 | 100517 | 125762
      25.       6 | 27:56.63 |  4:01.69 | 125763 | 143906
      26.       7 | 31:58.57 |  6:00.63 | 143907 | 170969
      27.       8 | 37:59.45 |  4:48.47 | 170970 | 192616
      28.       9 | 42:48.17 |  5:19.20 | 192617 | 216561
      29.      10 | 48:07.37 |  5:15.00 | 216562 | 240186


      30. 范围状态及错误

      31. 已选择范围

      32.      文件名 G:\EAC\歇斯 - 2014《响琴山》[WAV整轨]\歇斯 - 响琴山.wav

      33.      峰值电平 100.0 %
      34.      抓取速度 10.1 X
      35.      范围质量 100.0 %
      36.      复制 CRC FD8A7638
      37.      复制成功

      38. 没有错误发生


      39. AccurateRip 摘要

      40. 音轨  1  在数据库中不存在
      41. 音轨  2  在数据库中不存在
      42. 音轨  3  在数据库中不存在
      43. 音轨  4  在数据库中不存在
      44. 音轨  5  在数据库中不存在
      45. 音轨  6  在数据库中不存在
      46. 音轨  7  在数据库中不存在
      47. 音轨  8  在数据库中不存在
      48. 音轨  9  在数据库中不存在
      49. 音轨 10  在数据库中不存在

      50. 没有任何音轨在 AccurateRip 数据库中有记录

      51. 状态报告结尾

      52. ---- CUETools DB Plugin V2.1.6

      53. [CTDB TOCID: 2nGuhNR5FKjFw8zqnyIszeT09Wg-] disk not present in database
      54. Submit result: 2nGuhNR5FKjFw8zqnyIszeT09Wg- has been uploaded
      复制代码



      评分

      参与人数 1CD +240 收起 理由
      最终之战 + 240 感谢分享资源,CD包因你而精彩.

      查看全部评分





      原抓:糖衣娃娃《天朝梦想家》2014/WAV_整轨/度盘
      原抓:Dreamki《梦想成为》2012/WAV_整轨/度盘

      194

      主题

      1296

      帖子

      4万

      积分

      天王巨星

      Rank: 7Rank: 7Rank: 7

      积分
      48810

      社区QQ达人灌水勋章

      2#
      发表于 2019-4-10 10:01:33 | 只看该作者
      河南老乡感受一下

      59

      主题

      384

      帖子

      3万

      积分

      天王巨星

      Rank: 7Rank: 7Rank: 7

      积分
      38398

      社区QQ达人

      3#
      发表于 2019-4-10 12:30:53 | 只看该作者
      听听“歇斯的吉他专辑,谢谢楼主?。?!

      28

      主题

      771

      帖子

      4万

      积分

      天王巨星

      Rank: 7Rank: 7Rank: 7

      积分
      42351

      社区QQ达人VIP勋章

      4#
      发表于 2019-4-10 20:33:47 | 只看该作者
      据说响琴山令人大失所望,我也看看
       成长值: 780

      1

      主题

      25

      帖子

      -316

      积分

      VIP2

      Rank: 5Rank: 5

      积分
      -316
      5#
      发表于 2019-4-17 14:41:17 | 只看该作者
      以前那张《舞指如歌》很棒,这张不知道怎么样
      您需要登录后才可以回帖 登录 | 注册

      本版积分规则

      快速回复 返回顶部 返回列表
      最精准免费平特一肖-最精准平特一肖-最快开奖报码