<th id="thxwy"><option id="thxwy"></option></th>

      <tr id="thxwy"></tr>

    1. 最近看过此主题的会员

      查看: 260|回复: 1
      打印 上一主题 下一主题

      [华语] 原抓:Dreamki《梦想成为》2012/WAV_整轨/度盘

      [复制链接]
       成长值: 3960

      31

      主题

      161

      帖子

      1万

      积分

      VIP4

      Rank: 7Rank: 7Rank: 7

      积分
      16187
      跳转到指定楼层
      1#
      发表于 2019-4-10 06:50:03 | 只看该作者 |只看大图 回帖奖励 |倒序浏览 |阅读模式

      注册会员,获得无损资源下载地址,享受高品质音乐。

      您需要 登录 才可以下载或查看,没有帐号?注册

      x
      表演者: DreamKi
      流派: 摇滚
      专辑类型: 专辑
      介质: CD
      发行时间: 2012-08-27
      出版者: 嚎叫唱片
      唱片数: 1
      条形码: 9787881019802


      简介  · · · · · ·
        Dreamki,来自河北省南部城市邯郸的一支朋克摇滚乐队。
        摇滚乐对于他们每一个人的概念是情人节的子弹,它把他们击的如此血红的幸福。是儿童节的炮弹,它着着糖衣让他们甜蜜的忘记疼痛。是国庆节的军刀,它庄严的捍卫着他们的想法和誓言。是元宵节的彩灯,它照亮了那通往幸福的街道。 对他们来讲那就是四季。他们就是Dreamki,总是梦想永远成为孩子,梦想成为国王,梦想找到打开一切的钥匙——
        《梦想成为》就是他们的首张专辑,带着他们纯净的梦想,唱出他们青涩的感情世界;
        细腻而不失爆发力,成长路上,Dreamki从未放弃!
      曲目  · · · · · ·
      01. Feel You In Kiss 吻中感觉你
      02. My Way 我的路
      03. Baby I Love You 宝贝我爱你
      04. Past Time 过去时光
      05. To Find My Girl Out 去找到我的姑娘
      06. Join the Party 参加这个聚会
      07. A Wonderful Night 一个美好的夜晚
      08. Like A Bird 像一只鸟
      09. Your Dream 你的梦想
      10. Snowing Outsinde 外面下着雪
      游客,如果您要查看本帖隐藏内容请回复


      1. Exact Audio Copy V1.3 from 2. September 2016

      2. EAC 抓取日志文件从9. 四月 2019, 20:45

      3. DreamKi  / 梦想成为

      4. 使用驱动器  :Optiarc DVD RW AD-7730U   Adapter: 1  ID: 0

      5. 读取模式      : 可靠Secure
      6. 使用精确流     : 是
      7. 清空音频缓存    : 否
      8. 使用 C2 指示器 : 是

      9. 读取偏移校正:               : 6
      10. 读取 Lead-In 和 Lead-Out : 否
      11. 用静音填充抓取中丢失偏移的采样       : 是
      12. 去除首尾静音块               : 否
      13. 在CRC 计算中使用了空样本       : 是
      14. 已用接口                  : Win NT 及 2000 本地 Win32 接口

      15. 所用输出模式: : 内部 WAV 函数
      16. 样本格式    : 44.100 Hz; 16 Bit; 立体声


      17. 已抓取 CD 的 TOC

      18.      音轨 |    起始    |    长度    |  起始扇区  |  结束扇区  
      19.     --------------------------------------------
      20.       1 |  0:00.00 |  3:38.52 |      0 |  16401
      21.       2 |  3:38.52 |  4:46.32 |  16402 |  37883
      22.       3 |  8:25.09 |  5:06.38 |  37884 |  60871
      23.       4 | 13:31.47 |  4:06.22 |  60872 |  79343
      24.       5 | 17:37.69 |  4:46.69 |  79344 | 100862
      25.       6 | 22:24.63 |  3:00.67 | 100863 | 114429
      26.       7 | 25:25.55 |  5:22.49 | 114430 | 138628
      27.       8 | 30:48.29 |  3:54.08 | 138629 | 156186
      28.       9 | 34:42.37 |  3:44.68 | 156187 | 173054
      29.      10 | 38:27.30 |  5:48.03 | 173055 | 199157


      30. 范围状态及错误

      31. 已选择范围

      32.      文件名 G:\EAC\DreamKi  - 2012《梦想成为》[WAV整轨]\DreamKi  - 梦想成为.wav

      33.      峰值电平 99.9 %
      34.      抓取速度 9.9 X
      35.      范围质量 99.9 %
      36.      复制 CRC 7B02AF1B
      37.      复制成功

      38. 没有错误发生


      39. AccurateRip 摘要

      40. 音轨  1  精确地校准抓取  1)  [B5AD69CD]  (AR v2)
      41. 音轨  2  精确地校准抓取  1)  [E11D9693]  (AR v2)
      42. 音轨  3  精确地校准抓取  1)  [795FB03E]  (AR v2)
      43. 音轨  4  精确地校准抓取  1)  [3F8C2EA5]  (AR v2)
      44. 音轨  5  精确地校准抓取  1)  [320402B2]  (AR v2)
      45. 音轨  6  精确地校准抓取  1)  [54CE51C0]  (AR v2)
      46. 音轨  7  精确地校准抓取  1)  [C84BAAEE]  (AR v2)
      47. 音轨  8  精确地校准抓取  1)  [00C99681]  (AR v2)
      48. 音轨  9  精确地校准抓取  1)  [6E27B1DE]  (AR v2)
      49. 音轨 10  精确地校准抓取  1)  [04433F5C]  (AR v2)

      50. 所有音轨精确校准抓取

      51. 状态报告结尾

      52. ---- CUETools DB Plugin V2.1.6

      53. [CTDB TOCID: pw.6KmYw5Qiw5_u8XIf6NVJ1coU-] found
      54. Submit result: pw.6KmYw5Qiw5_u8XIf6NVJ1coU- has been confirmed
      55. Track | CTDB Status
      56.   1   | (1/1) Accurately ripped
      57.   2   | (1/1) Accurately ripped
      58.   3   | (1/1) Accurately ripped
      59.   4   | (1/1) Accurately ripped
      60.   5   | (1/1) Accurately ripped
      61.   6   | (1/1) Accurately ripped
      62.   7   | (1/1) Accurately ripped
      63.   8   | (1/1) Accurately ripped
      64.   9   | (1/1) Accurately ripped
      65. 10   | (1/1) Accurately ripped
      复制代码


      评分

      参与人数 1CD +240 收起 理由
      最终之战 + 240

      查看全部评分





      原抓:歇斯《响琴山》2014/WAV_整轨/度盘
      原抓:波多黎各拉丁说唱 Calle 13《MultiViral》2014/WAV/BD

      110

      主题

      1605

      帖子

      4万

      积分

      天王巨星

      Rank: 7Rank: 7Rank: 7

      积分
      49586

      社区QQ达人

      2#
      发表于 2019-4-10 09:58:36 | 只看该作者
      这个到真没听过,谢谢楼主分享
      您需要登录后才可以回帖 登录 | 注册

      本版积分规则

      快速回复 返回顶部 返回列表
      最精准免费平特一肖-最精准平特一肖-最快开奖报码