<th id="thxwy"><option id="thxwy"></option></th>

      <tr id="thxwy"></tr>

    1. 最近看过此主题的会员

      查看: 402|回复: 2
      打印 上一主题 下一主题

      [华语] 原抓:纣王老胡-《昨天》2013/WAV_整轨/度盘

      [复制链接]
       成长值: 3960

      31

      主题

      161

      帖子

      1万

      积分

      VIP4

      Rank: 7Rank: 7Rank: 7

      积分
      16187
      跳转到指定楼层
      1#
      发表于 2019-4-10 21:04:32 | 只看该作者 |只看大图 回帖奖励 |倒序浏览 |阅读模式

      注册会员,获得无损资源下载地址,享受高品质音乐。

      您需要 登录 才可以下载或查看,没有帐号?注册

      x
      本帖最后由 dfbbxxx 于 2019-4-10 21:07 编辑

      metal大神已发过,致敬??!

      表演者: 纣王(胡晓鸣)  纣王老胡
      流派: 民谣
      专辑类型: 专辑
      介质: CD
      发行时间: 2013-03-01
      出版者: 中国华侨出版社
      唱片数: 1000
      条形码: 9787889231800
      ISRC(中国): CNM691300120



      简介  · · · · · ·
        时而随和,时而暴躁,不爱出门,不爱洗澡,不爱练琴,不善言谈,技术超差,乐感超强。讨厌过年,低调,高调,牛逼,近视。热爱民谣但有一颗燥热的摇滚之心。爱吃辣椒,从不杀生。希望冬天流浪猫狗有个温暖的家。
      曲目  · · · · · ·
      1:涩
      2:离散
      3:噩梦成真
      4:你我同在
      5:磨剪子锵菜刀
      6:无能为力
      7:十字路口
      8:文艺青年
      9:眼泪
      10:陌生兄弟
      11:那个喝醉的夜晚挡不住我们的步伐
      12:我可以提前离开
      游客,如果您要查看本帖隐藏内容请回复


      1. Exact Audio Copy V1.3 from 2. September 2016

      2. EAC 抓取日志文件从5. 四月 2019, 15:10

      3. 纣王老胡 / 昨天

      4. 使用驱动器  :Optiarc DVD RW AD-7730U   Adapter: 1  ID: 0

      5. 读取模式      : 可靠Secure
      6. 使用精确流     : 是
      7. 清空音频缓存    : 否
      8. 使用 C2 指示器 : 是

      9. 读取偏移校正:               : 6
      10. 读取 Lead-In 和 Lead-Out : 否
      11. 用静音填充抓取中丢失偏移的采样       : 是
      12. 去除首尾静音块               : 否
      13. 在CRC 计算中使用了空样本       : 是
      14. 已用接口                  : Win NT 及 2000 本地 Win32 接口

      15. 所用输出模式: : 内部 WAV 函数
      16. 样本格式    : 44.100 Hz; 16 Bit; 立体声


      17. 已抓取 CD 的 TOC

      18.      音轨 |    起始    |    长度    |  起始扇区  |  结束扇区  
      19.     --------------------------------------------
      20.       1 |  0:00.00 |  5:15.72 |      0 |  23696
      21.       2 |  5:15.72 |  4:29.05 |  23697 |  43876
      22.       3 |  9:45.02 |  4:14.31 |  43877 |  62957
      23.       4 | 13:59.33 |  4:08.20 |  62958 |  81577
      24.       5 | 18:07.53 |  4:52.22 |  81578 | 103499
      25.       6 | 23:00.00 |  4:16.01 | 103500 | 122700
      26.       7 | 27:16.01 |  4:25.27 | 122701 | 142602
      27.       8 | 31:41.28 |  3:38.04 | 142603 | 158956
      28.       9 | 35:19.32 |  4:36.50 | 158957 | 179706
      29.      10 | 39:56.07 |  5:05.17 | 179707 | 202598
      30.      11 | 45:01.24 |  4:06.47 | 202599 | 221095
      31.      12 | 49:07.71 |  3:05.05 | 221096 | 234975


      32. 范围状态及错误

      33. 已选择范围

      34.      文件名 G:\EAC\纣王老胡 - 2013《昨天》[WAV整轨]\纣王老胡 - 昨天.wav

      35.      峰值电平 100.0 %
      36.      抓取速度 10.2 X
      37.      范围质量 100.0 %
      38.      复制 CRC 3589ECCB
      39.      复制成功

      40. 没有错误发生


      41. AccurateRip 摘要

      42. 音轨  1  在数据库中不存在
      43. 音轨  2  在数据库中不存在
      44. 音轨  3  在数据库中不存在
      45. 音轨  4  在数据库中不存在
      46. 音轨  5  在数据库中不存在
      47. 音轨  6  在数据库中不存在
      48. 音轨  7  在数据库中不存在
      49. 音轨  8  在数据库中不存在
      50. 音轨  9  在数据库中不存在
      51. 音轨 10  在数据库中不存在
      52. 音轨 11  在数据库中不存在
      53. 音轨 12  在数据库中不存在

      54. 没有任何音轨在 AccurateRip 数据库中有记录

      55. 状态报告结尾

      56. ---- CUETools DB Plugin V2.1.6

      57. [CTDB TOCID: IzPjx3.T_mO8bm1qjbK5kl56tgc-] found
      58. Submit result: IzPjx3.T_mO8bm1qjbK5kl56tgc- has been confirmed
      59. Track | CTDB Status
      60.   1   | (1/1) Accurately ripped
      61.   2   | (1/1) Accurately ripped
      62.   3   | (1/1) Accurately ripped
      63.   4   | (1/1) Accurately ripped
      64.   5   | (1/1) Accurately ripped
      65.   6   | (1/1) Accurately ripped
      66.   7   | (1/1) Accurately ripped
      67.   8   | (1/1) Accurately ripped
      68.   9   | (1/1) Accurately ripped
      69. 10   | (1/1) Accurately ripped
      70. 11   | (1/1) Accurately ripped
      71. 12   | (1/1) Accurately ripped
      复制代码



      评分

      参与人数 1CD +240 收起 理由
      最终之战 + 240

      查看全部评分





      原抓:美老式死亡金属 King Stench《Visions Of Death》2009/WAV/BD
      原抓:南城二哥 - 《南城二哥》2016/WAV_整轨/度盘

      28

      主题

      771

      帖子

      4万

      积分

      天王巨星

      Rank: 7Rank: 7Rank: 7

      积分
      42351

      社区QQ达人VIP勋章

      2#
      发表于 2019-4-19 16:42:02 | 只看该作者
      这名字炸上天了,我竟然没听过他的

      194

      主题

      1296

      帖子

      4万

      积分

      天王巨星

      Rank: 7Rank: 7Rank: 7

      积分
      48842

      社区QQ达人灌水勋章

      3#
      发表于 2019-5-8 18:51:03 | 只看该作者
      民谣还是不错滴,谢谢分享
      您需要登录后才可以回帖 登录 | 注册

      本版积分规则

      快速回复 返回顶部 返回列表
      最精准免费平特一肖-最精准平特一肖-最快开奖报码