<th id="thxwy"><option id="thxwy"></option></th>

      <tr id="thxwy"></tr>

    1. 最近看过此主题的会员

      查看: 369|回复: 0
      打印 上一主题 下一主题

      [华语] 原抓:南城二哥 - 《南城二哥》2016/WAV_整轨/度盘

      [复制链接]
       成长值: 3990

      31

      主题

      161

      帖子

      1万

      积分

      VIP4

      Rank: 7Rank: 7Rank: 7

      积分
      16187
      跳转到指定楼层
      1#
      发表于 2019-4-12 00:48:08 | 只看该作者 |只看大图 回帖奖励 |倒序浏览 |阅读模式

      注册会员,获得无损资源下载地址,享受高品质音乐。

      您需要 登录 才可以下载或查看,没有帐号?注册

      x
      表演者: 南城二哥
      流派: 摇滚
      专辑类型: 专辑
      介质: CD
      发行时间: 2016-10-16
      出版者: 偶然文化
      唱片数: 1
      条形码: 9787881025957


      简介  · · · · · ·
        这张同名专辑《南城二哥》里十首歌真的每首都是主打歌。南城二哥特有的调侃风格唱尽老百姓的喜怒哀乐,作品也保持着鲜明的思想和深刻的道理。通过批判、讽刺和貌似严肃的无厘头幽默等音乐玩法儿,阐述“二哥”式伦理和世界观。
      举报
      曲目  · · · · · ·
      1 脸蛋儿
      2 哥俩好
      3 大实话
      4 小电驴
      5 大明星
      6 好姑娘
      7 老熟人
      8 平安歌

      游客,如果您要查看本帖隐藏内容请回复


      1. Exact Audio Copy V1.3 from 2. September 2016

      2. EAC 抓取日志文件从10. 四月 2019, 22:52

      3. 南城二哥 / 南城二哥

      4. 使用驱动器  :PIONEER BD-RW   BDR-XD04   Adapter: 1  ID: 0

      5. 读取模式      : 可靠Secure
      6. 使用精确流     : 是
      7. 清空音频缓存    : 是
      8. 使用 C2 指示器 : 否

      9. 读取偏移校正:               : 667
      10. 读取 Lead-In 和 Lead-Out : 否
      11. 用静音填充抓取中丢失偏移的采样       : 是
      12. 去除首尾静音块               : 否
      13. 在CRC 计算中使用了空样本       : 是
      14. 已用接口                  : Win NT 及 2000 本地 Win32 接口

      15. 所用输出模式: : 内部 WAV 函数
      16. 样本格式    : 44.100 Hz; 16 Bit; 立体声


      17. 已抓取 CD 的 TOC

      18.      音轨 |    起始    |    长度    |  起始扇区  |  结束扇区  
      19.     --------------------------------------------
      20.       1 |  0:00.00 |  2:43.44 |      0 |  12268
      21.       2 |  2:43.44 |  2:37.46 |  12269 |  24089
      22.       3 |  5:21.15 |  5:36.53 |  24090 |  49342
      23.       4 | 10:57.68 |  3:49.72 |  49343 |  66589
      24.       5 | 14:47.65 |  3:56.54 |  66590 |  84343
      25.       6 | 18:44.44 |  5:03.71 |  84344 | 107139
      26.       7 | 23:48.40 |  4:21.03 | 107140 | 126717
      27.       8 | 28:09.43 |  7:07.05 | 126718 | 158747


      28. 范围状态及错误

      29. 已选择范围

      30.      文件名 G:\EAC\南城二哥 - 2016《南城二哥》[WAV整轨]\南城二哥 - 南城二哥.wav

      31.      峰值电平 100.0 %
      32.      抓取速度 1.6 X
      33.      范围质量 100.0 %
      34.      复制 CRC B3E3F1E6
      35.      复制成功

      36. 没有错误发生


      37. AccurateRip 摘要

      38. 音轨  1  在数据库中不存在
      39. 音轨  2  在数据库中不存在
      40. 音轨  3  在数据库中不存在
      41. 音轨  4  在数据库中不存在
      42. 音轨  5  在数据库中不存在
      43. 音轨  6  在数据库中不存在
      44. 音轨  7  在数据库中不存在
      45. 音轨  8  在数据库中不存在

      46. 没有任何音轨在 AccurateRip 数据库中有记录

      47. 状态报告结尾

      48. ---- CUETools DB Plugin V2.1.6

      49. [CTDB TOCID: WYQ1VXZmwmbwoC1crRdStnaUbW8-] found
      50. Submit result: WYQ1VXZmwmbwoC1crRdStnaUbW8- has been uploaded
      51. Track | CTDB Status
      52.   1   | (1/1) Accurately ripped
      53.   2   | (0/1) No match
      54.   3   | (1/1) Accurately ripped
      55.   4   | (1/1) Accurately ripped
      56.   5   | (1/1) Accurately ripped
      57.   6   | (1/1) Accurately ripped
      58.   7   | (1/1) Accurately ripped
      59.   8   | (1/1) Accurately ripped
      复制代码


      评分

      参与人数 1CD +240 收起 理由
      最终之战 + 240

      查看全部评分





      原抓:纣王老胡-《昨天》2013/WAV_整轨/度盘
      原抓:曲咀俺斗《向远方 红河谷》哈尼族/WAV/BD
      您需要登录后才可以回帖 登录 | 注册

      本版积分规则

      快速回复 返回顶部 返回列表
      最精准免费平特一肖-最精准平特一肖-最快开奖报码