<th id="thxwy"><option id="thxwy"></option></th>

      <tr id="thxwy"></tr>

    1. 最近看过此主题的会员

      查看: 285|回复: 4
      打印 上一主题 下一主题

      [欧美] 老虎原抓:Breathe《Peace Of Mind》1990/分轨FLAC/BD(新手第一抓)

      [复制链接]

      27

      主题

      109

      帖子

      6051

      积分

      人气天王

      Rank: 5Rank: 5

      积分
      6051
      跳转到指定楼层
      1#
      发表于 2019-4-17 20:18:07 | 只看该作者 |只看大图 回帖奖励 |倒序浏览 |阅读模式

      注册会员,获得无损资源下载地址,享受高品质音乐。

      您需要 登录 才可以下载或查看,没有帐号?注册

      x
      本帖最后由 tiger777 于 2019-4-23 12:19 编辑

             其实自己收藏的CD很多,上万张绝对有了,就是人懒,一直也没有抓过,不过加入坛子后收了不少好东西,再不分享感觉心里实在过不去,那就试着自己抓一下吧,贡献一下,也不图啥。一次抓十张!以后也一样,欧美日韩随机吧,中文我基本不碰,碟子都是老外的,哈哈?。厶骋惶煜拗拼?0张图,那这第一次就先五张吧,剩下的明天发)
             自抓新手,如果有什么错误请务必予以指正,先感谢了!本来想抓整轨,突然感觉分轨更方便些,那就分轨了,如果不好拿以后整轨。
             第一次发帖,不知道格式对不对?


      专辑英文名: Peace Of Mind
      歌手: Breathe
      别名: 呼吸合唱团
      音乐风格: 摇滚
      资源格式: FLAC抓
      版本: [日本首版]
      发行时间: 1990年04月21日
      地区: 日本
      语言: 英语


      简介:












      专辑介绍:


      曾经以一曲动人的"Hands to Heaven"惊艳英美两地金榜的英国抒情摇滚团体Breathe继1988年首张专辑"ALL THAT JAZZ"取得漂亮战绩之后,时隔两年又推出了与前作风格几乎大相径庭的第二张专辑"PEACE OF MIND",再度进入了人们的视线,这一次带来的有首轮主打曲目"Say a Prayer",高居英美两地排行榜前40名达数周之久。然而受到成员个人原因和唱片公司不再续约的影响,听众和外界都没有料到这就是乐团的终结,专辑的发行也随之草草收场,并没有引起外界进一步的关注。


      进入新世纪,乐团成员纷纷淡出人们视线,只有两条新闻引起人们注意,一条是乐团鼓手Ian Spice在2000年猝死在工作室内,另一条是2008年主唱David Glasper重返舞台。但是随着八九十年代的英伦乐坛开始被评论界和听众重新关注,呼吸合唱团的两张专辑开始被舆论重新关注和认识,并被赞为80年代最被忽视的乐团之一。


      呼吸乐队的第一张专辑《ALL THAT JAZZ》专辑哪位大大有能共享下就最好不过了。




      专辑曲目:


      01. I Hear You're Doing Fine
      02. Say A Prayer
      03. Does She Love That Man?
      04. Mississippi Water
      05. Will The Circle Be Unbroken?
      06. Woman
      07. Got To Get By
      08. Say Hello
      09. Where Angels Fear
      10. Without Your Love
      11. A Perfect Love
      12. Say A Prayer (Remix)




      游客,如果您要查看本帖隐藏内容请回复



      评分

      参与人数 1CD +240 收起 理由
      最终之战 + 240 感谢分享资源,CD包因你而精彩.

      查看全部评分





      原抓:曲咀俺斗《向远方 红河谷》哈尼族/WAV/BD
      老虎原抓:Bay City Rollers《The Definitive Collection》2002/分轨FLAC/BD

      27

      主题

      109

      帖子

      6051

      积分

      人气天王

      Rank: 5Rank: 5

      积分
      6051
      2#
       楼主| 发表于 2019-4-17 20:25:58 | 只看该作者
      昏,忘了加log了,补上!

      Exact Audio Copy V1.3 from 2. September 2016

      EAC extraction logfile from 4. April 2019, 21:15

      Breathe / Peace of Mind

      Used drive  : TSSTcorpCDDVDW SE-208GB   Adapter: 1  ID: 1

      Read mode               : Secure
      Utilize accurate stream : Yes
      Defeat audio cache      : No
      Make use of C2 pointers : No

      Read offset correction                      : 6
      Overread into Lead-In and Lead-Out          : No
      Fill up missing offset samples with silence : Yes
      Delete leading and trailing silent blocks   : No
      Null samples used in CRC calculations       : Yes
      Used interface                              : Native Win32 interface for Win NT & 2000
      Gap handling                                : Not detected, thus appended to previous track

      Used output format : Internal WAV Routines
      Sample format      : 44.100 Hz; 16 Bit; Stereo


      TOC of the extracted CD

           Track |   Start  |  Length  | Start sector | End sector
          ---------------------------------------------------------
              1  |  0:00.37 |  4:24.20 |        37    |    19856   
              2  |  4:24.57 |  3:51.23 |     19857    |    37204   
              3  |  8:16.05 |  4:47.22 |     37205    |    58751   
              4  | 13:03.27 |  3:51.73 |     58752    |    76149   
              5  | 16:55.25 |  4:15.12 |     76150    |    95286   
              6  | 21:10.37 |  4:34.65 |     95287    |   115901   
              7  | 25:45.27 |  3:34.55 |    115902    |   132006   
              8  | 29:20.07 |  4:32.15 |    132007    |   152421   
              9  | 33:52.22 |  4:50.08 |    152422    |   174179   
             10  | 38:42.30 |  3:55.55 |    174180    |   191859   
             11  | 42:38.10 |  4:02.10 |    191860    |   210019   
             12  | 46:40.20 |  3:59.37 |    210020    |   227981   


      Track  1

           Filename C:\新建文件夹最精准免费平特一肖-最精准平特一肖-最快开奖报码