<th id="thxwy"><option id="thxwy"></option></th>

      <tr id="thxwy"></tr>

    1. 最近看过此主题的会员

      查看: 207|回复: 0
      打印 上一主题 下一主题

      [欧美] 老虎原抓:Bay City Rollers《The Definitive Collection》2002/分轨FLAC/BD

      [复制链接]

      27

      主题

      109

      帖子

      6051

      积分

      人气天王

      Rank: 5Rank: 5

      积分
      6051
      跳转到指定楼层
      1#
      发表于 2019-4-17 20:48:38 | 只看该作者 |只看大图 回帖奖励 |倒序浏览 |阅读模式

      注册会员,获得无损资源下载地址,享受高品质音乐。

      您需要 登录 才可以下载或查看,没有帐号?注册

      x



      专辑英文名: The Definitive Collection
      歌手: Bay City Rollers
      别名: 湾市狂飙者
      音乐风格: 摇滚 Rock\电力流行 Power Pop\男孩团体 Boy Band
      资源格式: FLAC抓
      版本: [日本首版]
      发行时间: 2002年10月02日
      地区: 英国
      语言: 英语















      歌手介绍:


      Bay City Rollers ~ 是一队由五名苏格兰男孩所组成的合唱团,于70年代受到英国本地年轻人的疯狂喜爱,深受各地少女欢迎。

      1975年翻唱「Four Seasons」的名曲《Bye Bye Baby》创下连续六周冠军纪录,是当时英国最当红的偶喜爱的偶像团体,另一首受欢迎的歌曲是1976年翻唱「Dusty Springfield」的名曲《I Only Wanna Be With You》。 成名之后经ARISTA唱片公司重新录制他们于1974年的一首作品《Saturday Night》,在美国的电视、电台强力放送,造成了史无前例的轰动,也让他们在1986年初登上了全美冠军宝座。



      Bay City Rollers 是一队由五名苏格兰男孩所组成的合唱团,他们在1975年夏天的时候,受到英国青少年的疯狂热爱,俨然即将成为自从披头士以来英国最会制造畅销曲的乐队,到了1977年底之后,却完全遭到遗忘。他们在英国所有空前轰动的畅销曲,没有任何一首能够打进美国市场,唯一夺得美国冠军的歌曲,却是英国歌迷根本没有注意的专辑曲目。1970年,他们在一家俱乐部表演,Bell唱片公司的一位主管因为错过了飞回伦敦的班机,偶然间听到了他们的演唱,决定跟他们签约,随即以首支单曲「Keep on Dancing」拿到英国排行第九名,只可惜,接下来的三年间,他们始终无法再创高潮。1974年,公司安排他们跟创作与制作搭档比尔马?。˙ill Martin)和菲尔寇特(Phil Coulter)合作,这才开始重新获得注意,首先以「Remember (Sha-La-La)」拿到第六名,然后又以「Summerlove Sensation」等三首歌曲得到更好的成绩。1975年翻唱「Four Seasons」的名曲《Bye Bye Baby》创下连续六周冠军纪录,是当时英国最当红的偶像团体。四个月之后,又以「Give a Little Love 」夺下三周冠军。但正如许多英国歌坛的前辈,他们似乎也没有多少进军美国市场的机会。就在这个时候,Bell唱片被美国的唱片名人克莱夫戴维斯(Clive Davis)收购,并且改名为Arista唱片。
      透过密集的宣传火力,美国也开始掀起一阵不亚于英国的「海湾客狂热」。他们随即又以「Money Honey」打进美国排行前十名,并且在「American Bandstand」等红牌电视节目中大量曝光。 1976年,他们成功的翻唱了英国女星达丝蒂史普林菲德(Dusty Springfield)的60年代经典「I Only Want to Be with You」,只可惜,他们的运气随即开始下滑。1977年,他们曾经以「You Made Me Believe in Magic」再度进入前十名,但那已经是回光返照了。到了那一年的年底,他们就与大西洋两岸的排行榜永远绝缘。低潮之中,有两位团员闹自杀,主唱也牵扯到官司里,不得不走上曲终人散的结局。
      这首《Saturday Night》是于他们成名之后经ARISTA唱片公司重新录制,这是比尔马汀和菲尔寇特联手谱写的作品,收录在1974年发行的专辑中,不过先前没有受到任何注意。 戴维斯要求比尔马汀和菲尔寇特重新制作,在美国推出,同时配合密切的强打,安排透过卫星转播,在ABC电视网的「Saturday Night Live with Howard Cosell」节目中现场演唱,果然造成了空前的轰动,也让Bay Ciity Rollers首度打进美国排行,在1985年十月十一日第一次上榜,十二个星期后,更在1986年的一月三日登上了冠军宝座。
      (以上资料来自百度)


      这张是他们的精选集,好歌基本上都包含了!


      游客,如果您要查看本帖隐藏内容请回复




      LOG:


      Exact Audio Copy V1.3 from 2. September 2016


      EAC extraction logfile from 16. April 2019, 0:28


      Bay City Rollers / The Definitive Collection


      Used drive  : TSSTcorpCDDVDW SE-208GB   Adapter: 1  ID: 1


      Read mode               : Secure
      Utilize accurate stream : Yes
      Defeat audio cache      : No
      Make use of C2 pointers : No


      Read offset correction                      : 6
      Overread into Lead-In and Lead-Out          : No
      Fill up missing offset samples with silence : Yes
      Delete leading and trailing silent blocks   : No
      Null samples used in CRC calculations       : Yes
      Used interface                              : Native Win32 interface for Win NT & 2000
      Gap handling                                : Not detected, thus appended to previous track


      Used output format : Internal WAV Routines
      Sample format      : 44.100 Hz; 16 Bit; Stereo




      TOC of the extracted CD


           Track |   Start  |  Length  | Start sector | End sector
          ---------------------------------------------------------
              1  |  0:00.00 |  2:56.47 |         0    |    13246   
              2  |  2:56.47 |  2:07.68 |     13247    |    22839   
              3  |  5:04.40 |  2:32.42 |     22840    |    34281   
              4  |  7:37.07 |  3:04.50 |     34282    |    48131   
              5  | 10:41.57 |  3:16.08 |     48132    |    62839   
              6  | 13:57.65 |  2:51.45 |     62840    |    75709   
              7  | 16:49.35 |  3:23.70 |     75710    |    91004   
              8  | 20:13.30 |  3:05.22 |     91005    |   104901   
              9  | 23:18.52 |  3:17.05 |    104902    |   119681   
             10  | 26:35.57 |  3:19.05 |    119682    |   134611   
             11  | 29:54.62 |  2:57.28 |    134612    |   147914   
             12  | 32:52.15 |  3:37.30 |    147915    |   164219   
             13  | 36:29.45 |  3:45.10 |    164220    |   181104   
             14  | 40:14.55 |  3:36.27 |    181105    |   197331   
             15  | 43:51.07 |  3:55.58 |    197332    |   215014   
             16  | 47:46.65 |  2:59.65 |    215015    |   228504   
             17  | 50:46.55 |  2:44.32 |    228505    |   240836   
             18  | 53:31.12 |  3:54.20 |    240837    |   258406   
             19  | 57:25.32 |  3:47.20 |    258407    |   275451   
             20  | 61:12.52 |  3:23.63 |    275452    |   290739   




      Track  1


           Filename E:\MUSIC\01 Saturday Night.wav


           Peak level 99.7 %
           Extraction speed 1.6 X
           Track quality 99.9 %
           Copy CRC 0AAB76D0
           Accurately ripped (confidence 4)  [903C5638]  (AR v2)
           Copy OK


      Track  2


           Filename E:\MUSIC\02 Keep On Dancing (Single Version).wav


           Peak level 94.6 %
           Extraction speed 2.2 X
           Track quality 100.0 %
           Copy CRC A3DE95ED
           Accurately ripped (confidence 4)  [89F27E27]  (AR v2)
           Copy OK


      Track  3


           Filename E:\MUSIC\03 Remember (Sha La La La).wav


           Peak level 98.0 %
           Extraction speed 2.3 X
           Track quality 100.0 %
           Copy CRC B3741ACF
           Accurately ripped (confidence 4)  [233A7EA1]  (AR v2)
           Copy OK


      Track  4


           Filename E:\MUSIC\04 Shang-A-Lang.wav


           Peak level 97.9 %
           Extraction speed 2.5 X
           Track quality 100.0 %
           Copy CRC 59EA4088
           Accurately ripped (confidence 4)  [9F803DFC]  (AR v2)
           Copy OK


      Track  5


           Filename E:\MUSIC\05 Summer Love Sensation.wav


           Peak level 98.0 %
           Extraction speed 2.6 X
           Track quality 100.0 %
           Copy CRC 6798AEFC
           Accurately ripped (confidence 4)  [95969535]  (AR v2)
           Copy OK


      Track  6


           Filename E:\MUSIC\06 Bye Bye Baby.wav


           Peak level 97.9 %
           Extraction speed 2.7 X
           Track quality 100.0 %
           Copy CRC 380C2708
           Accurately ripped (confidence 4)  [EBA2F0DC]  (AR v2)
           Copy OK


      Track  7


           Filename E:\MUSIC\07 Give A Little Love.wav


           Peak level 98.0 %
           Extraction speed 2.9 X
           Track quality 100.0 %
           Copy CRC 603E7B87
           Accurately ripped (confidence 4)  [4487EFA1]  (AR v2)
           Copy OK


      Track  8


           Filename E:\MUSIC\08 All Of Me Loves All Of You.wav


           Peak level 98.0 %
           Extraction speed 3.0 X
           Track quality 100.0 %
           Copy CRC C704D86A
           Accurately ripped (confidence 4)  [ACA2C9DB]  (AR v2)
           Copy OK


      Track  9


           Filename E:\MUSIC\09 Money Honey.wav


           Peak level 98.0 %
           Extraction speed 3.1 X
           Track quality 100.0 %
           Copy CRC E36BEED4
           Accurately ripped (confidence 4)  [EAF1FEE4]  (AR v2)
           Copy OK


      Track 10


           Filename E:\MUSIC\10 Love Me Like I Love You.wav


           Peak level 97.9 %
           Extraction speed 3.2 X
           Track quality 100.0 %
           Copy CRC D64DC955
           Accurately ripped (confidence 4)  [DA467965]  (AR v2)
           Copy OK


      Track 11


           Filename E:\MUSIC\11 Rock And Roll Love Letter.wav


           Peak level 94.6 %
           Extraction speed 3.3 X
           Track quality 100.0 %
           Copy CRC 6424E7C5
           Accurately ripped (confidence 4)  [A785C83D]  (AR v2)
           Copy OK


      Track 12


           Filename E:\MUSIC\12 I Only Want To Be With You.wav


           Peak level 99.7 %
           Extraction speed 3.4 X
           Track quality 100.0 %
           Copy CRC 5E5975CC
           Accurately ripped (confidence 4)  [DDD5C978]  (AR v2)
           Copy OK


      Track 13


           Filename E:\MUSIC\13 Yesterday's Hero (Single Version).wav


           Peak level 94.6 %
           Extraction speed 3.6 X
           Track quality 100.0 %
           Copy CRC C51C0ADD
           Accurately ripped (confidence 4)  [B0E2292C]  (AR v2)
           Copy OK


      Track 14


           Filename E:\MUSIC\14 Rock 'N Roller.wav


           Peak level 98.0 %
           Extraction speed 3.6 X
           Track quality 100.0 %
           Copy CRC EE1DEA95
           Accurately ripped (confidence 4)  [A2EB3FC9]  (AR v2)
           Copy OK


      Track 15


           Filename E:\MUSIC\15 Dedication (Single Version).wav


           Peak level 99.7 %
           Extraction speed 3.8 X
           Track quality 100.0 %
           Copy CRC D4DC369F
           Accurately ripped (confidence 4)  [38EAB27C]  (AR v2)
           Copy OK


      Track 16


           Filename E:\MUSIC\16 It's A Game.wav


           Peak level 97.9 %
           Extraction speed 3.9 X
           Track quality 100.0 %
           Copy CRC 914FD45D
           Accurately ripped (confidence 4)  [E3B899BD]  (AR v2)
           Copy OK


      Track 17


           Filename E:\MUSIC\17 You Made Me Believe In Magic.wav


           Peak level 97.9 %
           Extraction speed 3.9 X
           Track quality 100.0 %
           Copy CRC BBD22D61
           Accurately ripped (confidence 4)  [9753D3DA]  (AR v2)
           Copy OK


      Track 18


           Filename E:\MUSIC\18 The Way I Feel Tonight.wav


           Peak level 97.9 %
           Extraction speed 4.0 X
           Track quality 100.0 %
           Copy CRC D16AAB1F
           Accurately ripped (confidence 4)  [92C72B16]  (AR v2)
           Copy OK


      Track 19


           Filename E:\MUSIC\19 Turn On The Radio  (Single Version).wav


           Peak level 97.9 %
           Extraction speed 4.2 X
           Track quality 100.0 %
           Copy CRC AE1EEE14
           Accurately ripped (confidence 4)  [7758D4AB]  (AR v2)
           Copy OK


      Track 20


           Filename E:\MUSIC\20 Wouldn't You Like It..wav


           Peak level 97.9 %
           Extraction speed 4.1 X
           Track quality 99.9 %
           Copy CRC 11D73E9B
           Accurately ripped (confidence 4)  [0F174D6A]  (AR v2)
           Copy OK




      All tracks accurately ripped


      No errors occurred


      End of status report


      ---- CUETools DB Plugin V2.1.6


      [CTDB TOCID: mZw4Dl14L..JXDiC1Kd0jCKTkT4-] found
      Submit result: mZw4Dl14L..JXDiC1Kd0jCKTkT4- has been confirmed
      Track | CTDB Status
        1   | (23/24) Accurately ripped
        2   | (23/24) Accurately ripped
        3   | (24/24) Accurately ripped
        4   | (24/24) Accurately ripped
        5   | (24/24) Accurately ripped
        6   | (24/24) Accurately ripped
        7   | (24/24) Accurately ripped
        8   | (24/24) Accurately ripped
        9   | (24/24) Accurately ripped
      10   | (24/24) Accurately ripped
      11   | (24/24) Accurately ripped
      12   | (24/24) Accurately ripped
      13   | (24/24) Accurately ripped
      14   | (22/24) Accurately ripped
      15   | (22/24) Accurately ripped
      16   | (24/24) Accurately ripped
      17   | (23/24) Accurately ripped
      18   | (24/24) Accurately ripped
      19   | (24/24) Accurately ripped
      20   | (22/24) Accurately ripped




      ==== Log checksum 743628326A47B1599AE050157F2605B11A9D484B4C6981F7A52CF1DD00658896 ====


      ------------------------------------------------------------


      Exact Audio Copy V1.3 from 2. September 2016


      EAC extraction logfile from 16. April 2019, 0:28


      Bay City Rollers / The Definitive Collection


      Used drive  : TSSTcorpCDDVDW SE-208GB   Adapter: 1  ID: 1


      Read mode               : Secure
      Utilize accurate stream : Yes
      Defeat audio cache      : No
      Make use of C2 pointers : No


      Read offset correction                      : 6
      Overread into Lead-In and Lead-Out          : No
      Fill up missing offset samples with silence : Yes
      Delete leading and trailing silent blocks   : No
      Null samples used in CRC calculations       : Yes
      Used interface                              : Native Win32 interface for Win NT & 2000
      Gap handling                                : Not detected, thus appended to previous track


      Used output format : Internal WAV Routines
      Sample format      : 44.100 Hz; 16 Bit; Stereo




      TOC of the extracted CD


           Track |   Start  |  Length  | Start sector | End sector
          ---------------------------------------------------------
              1  |  0:00.00 |  2:56.47 |         0    |    13246   
              2  |  2:56.47 |  2:07.68 |     13247    |    22839   
              3  |  5:04.40 |  2:32.42 |     22840    |    34281   
              4  |  7:37.07 |  3:04.50 |     34282    |    48131   
              5  | 10:41.57 |  3:16.08 |     48132    |    62839   
              6  | 13:57.65 |  2:51.45 |     62840    |    75709   
              7  | 16:49.35 |  3:23.70 |     75710    |    91004   
              8  | 20:13.30 |  3:05.22 |     91005    |   104901   
              9  | 23:18.52 |  3:17.05 |    104902    |   119681   
             10  | 26:35.57 |  3:19.05 |    119682    |   134611   
             11  | 29:54.62 |  2:57.28 |    134612    |   147914   
             12  | 32:52.15 |  3:37.30 |    147915    |   164219   
             13  | 36:29.45 |  3:45.10 |    164220    |   181104   
             14  | 40:14.55 |  3:36.27 |    181105    |   197331   
             15  | 43:51.07 |  3:55.58 |    197332    |   215014   
             16  | 47:46.65 |  2:59.65 |    215015    |   228504   
             17  | 50:46.55 |  2:44.32 |    228505    |   240836   
             18  | 53:31.12 |  3:54.20 |    240837    |   258406   
             19  | 57:25.32 |  3:47.20 |    258407    |   275451   
             20  | 61:12.52 |  3:23.63 |    275452    |   290739   




      Track  1


           Filename E:\MUSIC\01 Saturday Night.wav


           Peak level 99.7 %
           Extraction speed 1.6 X
           Track quality 99.9 %
           Copy CRC 0AAB76D0
           Accurately ripped (confidence 4)  [903C5638]  (AR v2)
           Copy OK


      Track  2


           Filename E:\MUSIC\02 Keep On Dancing (Single Version).wav


           Peak level 94.6 %
           Extraction speed 2.2 X
           Track quality 100.0 %
           Copy CRC A3DE95ED
           Accurately ripped (confidence 4)  [89F27E27]  (AR v2)
           Copy OK


      Track  3


           Filename E:\MUSIC\03 Remember (Sha La La La).wav


           Peak level 98.0 %
           Extraction speed 2.3 X
           Track quality 100.0 %
           Copy CRC B3741ACF
           Accurately ripped (confidence 4)  [233A7EA1]  (AR v2)
           Copy OK


      Track  4


           Filename E:\MUSIC\04 Shang-A-Lang.wav


           Peak level 97.9 %
           Extraction speed 2.5 X
           Track quality 100.0 %
           Copy CRC 59EA4088
           Accurately ripped (confidence 4)  [9F803DFC]  (AR v2)
           Copy OK


      Track  5


           Filename E:\MUSIC\05 Summer Love Sensation.wav


           Peak level 98.0 %
           Extraction speed 2.6 X
           Track quality 100.0 %
           Copy CRC 6798AEFC
           Accurately ripped (confidence 4)  [95969535]  (AR v2)
           Copy OK


      Track  6


           Filename E:\MUSIC\06 Bye Bye Baby.wav


           Peak level 97.9 %
           Extraction speed 2.7 X
           Track quality 100.0 %
           Copy CRC 380C2708
           Accurately ripped (confidence 4)  [EBA2F0DC]  (AR v2)
           Copy OK


      Track  7


           Filename E:\MUSIC\07 Give A Little Love.wav


           Peak level 98.0 %
           Extraction speed 2.9 X
           Track quality 100.0 %
           Copy CRC 603E7B87
           Accurately ripped (confidence 4)  [4487EFA1]  (AR v2)
           Copy OK


      Track  8


           Filename E:\MUSIC\08 All Of Me Loves All Of You.wav


           Peak level 98.0 %
           Extraction speed 3.0 X
           Track quality 100.0 %
           Copy CRC C704D86A
           Accurately ripped (confidence 4)  [ACA2C9DB]  (AR v2)
           Copy OK


      Track  9


           Filename E:\MUSIC\09 Money Honey.wav


           Peak level 98.0 %
           Extraction speed 3.1 X
           Track quality 100.0 %
           Copy CRC E36BEED4
           Accurately ripped (confidence 4)  [EAF1FEE4]  (AR v2)
           Copy OK


      Track 10


           Filename E:\MUSIC\10 Love Me Like I Love You.wav


           Peak level 97.9 %
           Extraction speed 3.2 X
           Track quality 100.0 %
           Copy CRC D64DC955
           Accurately ripped (confidence 4)  [DA467965]  (AR v2)
           Copy OK


      Track 11


           Filename E:\MUSIC\11 Rock And Roll Love Letter.wav


           Peak level 94.6 %
           Extraction speed 3.3 X
           Track quality 100.0 %
           Copy CRC 6424E7C5
           Accurately ripped (confidence 4)  [A785C83D]  (AR v2)
           Copy OK


      Track 12


           Filename E:\MUSIC\12 I Only Want To Be With You.wav


           Peak level 99.7 %
           Extraction speed 3.4 X
           Track quality 100.0 %
           Copy CRC 5E5975CC
           Accurately ripped (confidence 4)  [DDD5C978]  (AR v2)
           Copy OK


      Track 13


           Filename E:\MUSIC\13 Yesterday's Hero (Single Version).wav


           Peak level 94.6 %
           Extraction speed 3.6 X
           Track quality 100.0 %
           Copy CRC C51C0ADD
           Accurately ripped (confidence 4)  [B0E2292C]  (AR v2)
           Copy OK


      Track 14


           Filename E:\MUSIC\14 Rock 'N Roller.wav


           Peak level 98.0 %
           Extraction speed 3.6 X
           Track quality 100.0 %
           Copy CRC EE1DEA95
           Accurately ripped (confidence 4)  [A2EB3FC9]  (AR v2)
           Copy OK


      Track 15


           Filename E:\MUSIC\15 Dedication (Single Version).wav


           Peak level 99.7 %
           Extraction speed 3.8 X
           Track quality 100.0 %
           Copy CRC D4DC369F
           Accurately ripped (confidence 4)  [38EAB27C]  (AR v2)
           Copy OK


      Track 16


           Filename E:\MUSIC\16 It's A Game.wav


           Peak level 97.9 %
           Extraction speed 3.9 X
           Track quality 100.0 %
           Copy CRC 914FD45D
           Accurately ripped (confidence 4)  [E3B899BD]  (AR v2)
           Copy OK


      Track 17


           Filename E:\MUSIC\17 You Made Me Believe In Magic.wav


           Peak level 97.9 %
           Extraction speed 3.9 X
           Track quality 100.0 %
           Copy CRC BBD22D61
           Accurately ripped (confidence 4)  [9753D3DA]  (AR v2)
           Copy OK


      Track 18


           Filename E:\MUSIC\18 The Way I Feel Tonight.wav


           Peak level 97.9 %
           Extraction speed 4.0 X
           Track quality 100.0 %
           Copy CRC D16AAB1F
           Accurately ripped (confidence 4)  [92C72B16]  (AR v2)
           Copy OK


      Track 19


           Filename E:\MUSIC\19 Turn On The Radio  (Single Version).wav


           Peak level 97.9 %
           Extraction speed 4.2 X
           Track quality 100.0 %
           Copy CRC AE1EEE14
           Accurately ripped (confidence 4)  [7758D4AB]  (AR v2)
           Copy OK


      Track 20


           Filename E:\MUSIC\20 Wouldn't You Like It..wav


           Peak level 97.9 %
           Extraction speed 4.1 X
           Track quality 99.9 %
           Copy CRC 11D73E9B
           Accurately ripped (confidence 4)  [0F174D6A]  (AR v2)
           Copy OK




      All tracks accurately ripped


      No errors occurred


      End of status report


      ---- CUETools DB Plugin V2.1.6


      [CTDB TOCID: mZw4Dl14L..JXDiC1Kd0jCKTkT4-] found
      Submit result: mZw4Dl14L..JXDiC1Kd0jCKTkT4- has been confirmed
      Track | CTDB Status
        1   | (23/24) Accurately ripped
        2   | (23/24) Accurately ripped
        3   | (24/24) Accurately ripped
        4   | (24/24) Accurately ripped
        5   | (24/24) Accurately ripped
        6   | (24/24) Accurately ripped
        7   | (24/24) Accurately ripped
        8   | (24/24) Accurately ripped
        9   | (24/24) Accurately ripped
      10   | (24/24) Accurately ripped
      11   | (24/24) Accurately ripped
      12   | (24/24) Accurately ripped
      13   | (24/24) Accurately ripped
      14   | (22/24) Accurately ripped
      15   | (22/24) Accurately ripped
      16   | (24/24) Accurately ripped
      17   | (23/24) Accurately ripped
      18   | (24/24) Accurately ripped
      19   | (24/24) Accurately ripped
      20   | (22/24) Accurately ripped




      ==== Log checksum 743628326A47B1599AE050157F2605B11A9D484B4C6981F7A52CF1DD00658896 ====














      评分

      参与人数 1CD +240 收起 理由
      最终之战 + 240 精彩的帖子,辛苦了

      查看全部评分





      老虎原抓:Breathe《Peace Of Mind》1990/分轨FLAC/BD(新手第一抓)
      老虎原抓:Amy Keys《Lover's Intuition》1989/分轨FLAC/BD
      您需要登录后才可以回帖 登录 | 注册

      本版积分规则

      快速回复 返回顶部 返回列表
      最精准免费平特一肖-最精准平特一肖-最快开奖报码