<th id="thxwy"><option id="thxwy"></option></th>

      <tr id="thxwy"></tr>

    1. 最近看过此主题的会员

      查看: 236|回复: 1
      打印 上一主题 下一主题

      [欧美] 老虎原抓:Amy Keys《Lover's Intuition》1989/分轨FLAC/BD

      [复制链接]

      27

      主题

      109

      帖子

      6051

      积分

      人气天王

      Rank: 5Rank: 5

      积分
      6051
      跳转到指定楼层
      1#
      发表于 2019-4-17 21:20:49 | 只看该作者 |只看大图 回帖奖励 |倒序浏览 |阅读模式

      注册会员,获得无损资源下载地址,享受高品质音乐。

      您需要 登录 才可以下载或查看,没有帐号?注册

      x




      专辑英文名: Lover's Intuition
      歌手: Amy Keys
      别名: 艾米·凯斯
      音乐风格: 节奏布鲁斯 R&B
      资源格式: FLAC抓
      版本: [美国首版]
      发行时间: 1989
      地区: 美国
      语言: 英语

















      歌手简介
      职业:歌手、艺术家
      代表作:《Lover's Intuition》
      简介:Amy Keys是美国歌手和声乐艺术家。她签约了Epic Records唱片公司并发行了一张个人专辑,并于1989年发行了几首单曲,她曾在迪斯尼的电影中配乐和担任伴唱并在录音室录音。最引人注目的是和Ringo Starr、Phil Collins、Toto、Johnny Hallyday合作。
      个人作品:专辑:
      1989年《Lover's Intuition》

      她应该就出了这一张专辑,她的声音太有特点了,这里卖个关子,听了就知道!
      07 A Man And A Woman这首歌太有味道了,个人很喜欢!推荐给大家,这张专辑喜欢灵魂的别错过!



      游客,如果您要查看本帖隐藏内容请回复


      log:
      Exact Audio Copy V1.3 from 2. September 2016

      EAC extraction logfile from 15. April 2019, 23:46

      Amy Keys / Lover's Intuition

      Used drive  : TSSTcorpCDDVDW SE-208GB   Adapter: 1  ID: 1

      Read mode               : Secure
      Utilize accurate stream : Yes
      Defeat audio cache      : No
      Make use of C2 pointers : No

      Read offset correction                      : 6
      Overread into Lead-In and Lead-Out          : No
      Fill up missing offset samples with silence : Yes
      Delete leading and trailing silent blocks   : No
      Null samples used in CRC calculations       : Yes
      Used interface                              : Native Win32 interface for Win NT & 2000
      Gap handling                                : Not detected, thus appended to previous track

      Used output format : Internal WAV Routines
      Sample format      : 44.100 Hz; 16 Bit; Stereo


      TOC of the extracted CD

           Track |   Start  |  Length  | Start sector | End sector
          ---------------------------------------------------------
              1  |  0:00.00 |  5:02.52 |         0    |    22701   
              2  |  5:02.52 |  4:34.03 |     22702    |    43254   
              3  |  9:36.55 |  3:55.47 |     43255    |    60926   
              4  | 13:32.27 |  4:40.73 |     60927    |    81999   
              5  | 18:13.25 |  5:35.00 |     82000    |   107124   
              6  | 23:48.25 |  4:02.20 |    107125    |   125294   
              7  | 27:50.45 |  4:55.32 |    125295    |   147451   
              8  | 32:46.02 |  5:24.10 |    147452    |   171761   
              9  | 38:10.12 |  4:19.05 |    171762    |   191191   
             10  | 42:29.17 |  3:55.58 |    191192    |   208874   


      Track  1

           Filename E:\MUSIC\01 I Know What's Good For You.wav

           Peak level 88.7 %
           Extraction speed 1.7 X
           Track quality 100.0 %
           Copy CRC 0818E23C
           Accurately ripped (confidence 1)  [D4EED986]  (AR v2)
           Copy OK

      Track  2

           Filename E:\MUSIC\02 Lover's Intuition.wav

           Peak level 99.8 %
           Extraction speed 2.2 X
           Track quality 100.0 %
           Copy CRC 6A76DA1D
           Accurately ripped (confidence 1)  [1B6FA664]  (AR v2)
           Copy OK

      Track  3

           Filename E:\MUSIC\03 Will You Respect Me (In The Morning).wav

           Peak level 77.3 %
           Extraction speed 2.4 X
           Track quality 100.0 %
           Copy CRC 75DBFB42
           Accurately ripped (confidence 1)  [9D7AC3A9]  (AR v2)
           Copy OK

      Track  4

           Filename E:\MUSIC\04 Someone's Gonna Fall In Love.wav

           Peak level 89.5 %
           Extraction speed 2.6 X
           Track quality 100.0 %
           Copy CRC 8487B743
           Accurately ripped (confidence 1)  [1FFEE397]  (AR v2)
           Copy OK

      Track  5

           Filename E:\MUSIC\05 Has It Come To This.wav

           Peak level 76.6 %
           Extraction speed 2.8 X
           Track quality 99.9 %
           Copy CRC D27F5179
           Accurately ripped (confidence 1)  [9839A17E]  (AR v2)
           Copy OK

      Track  6

           Filename E:\MUSIC\06 Even Now.wav

           Peak level 100.0 %
           Extraction speed 3.0 X
           Track quality 100.0 %
           Copy CRC 5729628A
           Accurately ripped (confidence 1)  [D4215C0F]  (AR v2)
           Copy OK

      Track  7

           Filename E:\MUSIC\07 A Man And A Woman.wav

           Peak level 94.3 %
           Extraction speed 3.1 X
           Track quality 100.0 %
           Copy CRC B2B868BB
           Accurately ripped (confidence 1)  [CEF62D73]  (AR v2)
           Copy OK

      Track  8

           Filename E:\MUSIC\08 Everytime I Close My Eyes.wav

           Peak level 82.7 %
           Extraction speed 3.3 X
           Track quality 100.0 %
           Copy CRC F0CFD91F
           Accurately ripped (confidence 1)  [15D0996F]  (AR v2)
           Copy OK

      Track  9

           Filename E:\MUSIC\09 Precious.wav

           Peak level 99.8 %
           Extraction speed 3.5 X
           Track quality 100.0 %
           Copy CRC 1574E388
           Accurately ripped (confidence 1)  [EC9D3071]  (AR v2)
           Copy OK

      Track 10

           Filename E:\MUSIC\10 Crazy Love.wav

           Peak level 99.4 %
           Extraction speed 3.6 X
           Track quality 100.0 %
           Copy CRC 076FE554
           Accurately ripped (confidence 1)  [CC7DAD8C]  (AR v2)
           Copy OK


      All tracks accurately ripped

      No errors occurred

      End of status report

      ---- CUETools DB Plugin V2.1.6

      [CTDB TOCID: BCT2_y8oeowKjZU9qME2z3Of8rA-] found
      Submit result: BCT2_y8oeowKjZU9qME2z3Of8rA- has been confirmed
      Track | CTDB Status
        1   | (4/4) Accurately ripped
        2   | (4/4) Accurately ripped
        3   | (4/4) Accurately ripped
        4   | (4/4) Accurately ripped
        5   | (4/4) Accurately ripped
        6   | (4/4) Accurately ripped
        7   | (4/4) Accurately ripped
        8   | (4/4) Accurately ripped
        9   | (4/4) Accurately ripped
      10   | (4/4) Accurately ripped


      ==== Log checksum E2EA6DC84952B784FC73702325A76A0D8C783D9B5E7DEEBAE9F65CF81180BDE4 ====

      ------------------------------------------------------------

      评分

      参与人数 1CD +240 收起 理由
      最终之战 + 240 很棒的帖子,支持

      查看全部评分





      老虎原抓:Bay City Rollers《The Definitive Collection》2002/分轨FLAC/BD
      老虎原抓:Soul For Real《Candy Rain》1994/分轨FLAC/BD
       成长值: 420

      0

      主题

      19

      帖子

      934

      积分

      VIP1

      Rank: 4

      积分
      934
      2#
      发表于 2019-4-19 10:39:29 | 只看该作者
      非常好听的女中音,8090年代的曲风,太喜欢了。
      您需要登录后才可以回帖 登录 | 注册

      本版积分规则

      快速回复 返回顶部 返回列表
      最精准免费平特一肖-最精准平特一肖-最快开奖报码