<th id="thxwy"><option id="thxwy"></option></th>

      <tr id="thxwy"></tr>

    1. 最近看过此主题的会员

      查看: 264|回复: 1
      打印 上一主题 下一主题

      [欧美] 原抓:Steve Aoki《neon futrue II》2015/WAV分轨/度盘

      [复制链接]

      5

      主题

      32

      帖子

      1701

      积分

      当红偶像

      Rank: 4

      积分
      1701
      跳转到指定楼层
      1#
      发表于 2019-4-18 20:01:18 | 只看该作者 回帖奖励 |倒序浏览 |阅读模式

      注册会员,获得无损资源下载地址,享受高品质音乐。

      您需要 登录 才可以下载或查看,没有帐号?注册

      x

      专辑名: neon futrue II
      制作人: Steve Aoki(潮爷)
      风格: 电子
      资源格式: WAV
      版本: 美版
      发行时间: 2015年05月12日
      地区: 美国
      语言: 英语专辑曲目:01.Time Capsule (Intro)
      02. Steve Aoki & Moxie Raia  I Love It When You Cry (Moxoki) [Radio Edit]
      03. Youth Dem (Turn Up) [feat. Snoop Lion]
      04. Hysteria (feat. Matthew Koma)
      05. Darker Than Blood (feat. LINKIN PARK)
      06. Steve Aoki, NERVO & Tony Junior  Lightning Strikes
      07. Tars (Interlude)
      08. Steve Aoki & Walk Off the Earth  Home We’ll Go (Take My Hand)
      09. Heaven On Earth (feat. Sherry St. Germain)
      10. Holding Up the World (feat. Harrison & Albin Myers)
      11. Light Years (feat. Rivers Cuomo)
      12. Warp Speed (feat. J.J. Abrams) [Outro]

      游客,如果您要查看本帖隐藏内容请回复

      Exact Audio Copy V1.0 beta 3 from 29. August 2011

      EAC 抓取日志文件从14. 四月 2019, 19:29

      未知艺术家 / 未知标题

      使用驱动器  :HL-DT-STDVDRAM GP60NB60   Adapter: 3  ID: 0

      读取模式      : 可靠Secure
      使用精确流     : 是
      清空音频缓存    : 是
      使用 C2 指示器 : 否

      读取偏移校正:               : 0
      读取 Lead-In 和 Lead-Out : 否
      用静音填充抓取中丢失偏移的采样       : 是
      去除首尾静音块               : 否
      在CRC 计算中使用了空样本       : 是
      已用接口                  : Win NT 及 2000 本地 Win32 接口
      间隙处理                  : 没检测到,因此追加到上一曲目

      所用输出模式: : 内部 WAV 函数
      样本格式    : 44.100 Hz; 16 Bit; 立体声


      已抓取 CD 的 TOC

           音轨 |    起始    |    长度    |  起始扇区  |  结束扇区  
          --------------------------------------------
            1 |  0:00.00 |  3:01.45 |      0 |  13619
            2 |  3:01.45 |  3:11.58 |  13620 |  28002
            3 |  6:13.28 |  3:13.29 |  28003 |  42506
            4 |  9:26.57 |  4:26.18 |  42507 |  62474
            5 | 13:53.00 |  5:13.12 |  62475 |  85961
            6 | 19:06.12 |  3:58.43 |  85962 | 103854
            7 | 23:04.55 |  2:20.45 | 103855 | 114399
            8 | 25:25.25 |  5:07.53 | 114400 | 137477
            9 | 30:33.03 |  3:48.56 | 137478 | 154633
           10 | 34:21.59 |  3:21.33 | 154634 | 169741
           11 | 37:43.17 |  4:08.55 | 169742 | 188396
           12 | 41:51.72 |  2:07.43 | 188397 | 197964


      音轨  1

           文件名 E:\新建文件夹eac\neon futrue II\01. 音轨01 .wav

           峰值电平 97.6 %
           抓取速度 1.0 X
           音轨质量 99.9 %
           复制 CRC 94824094
           复制成功

      音轨  2

           文件名 E:\新建文件夹eac\neon futrue II\02. 音轨02 .wav

           峰值电平 100.0 %
           抓取速度 1.3 X
           音轨质量 100.0 %
           复制 CRC 5175CC4C
           复制成功

      音轨  3

           文件名 E:\新建文件夹eac\neon futrue II\03. 音轨03 .wav

           峰值电平 100.0 %
           抓取速度 1.4 X
           音轨质量 100.0 %
           复制 CRC 38B0A7C4
           复制成功

      音轨  4

           文件名 E:\新建文件夹eac\neon futrue II\04. 音轨04 .wav

           峰值电平 99.3 %
           抓取速度 1.4 X
           音轨质量 99.9 %
           复制 CRC D83C8551
           复制成功

      音轨  5

           文件名 E:\新建文件夹eac\neon futrue II\05. 音轨05 .wav

           峰值电平 100.0 %
           抓取速度 1.7 X
           音轨质量 100.0 %
           复制 CRC 32E2D7A6
           复制成功

      音轨  6

           文件名 E:\新建文件夹eac\neon futrue II\06. 音轨06 .wav

           峰值电平 100.0 %
           抓取速度 1.8 X
           音轨质量 100.0 %
           复制 CRC C8995395
           复制成功

      音轨  7

           文件名 E:\新建文件夹eac\neon futrue II\07. 音轨07 .wav

           峰值电平 99.9 %
           抓取速度 1.7 X
           音轨质量 100.0 %
           复制 CRC A2583241
           复制成功

      音轨  8

           文件名 E:\新建文件夹eac\neon futrue II\08. 音轨08 .wav

           峰值电平 100.0 %
           抓取速度 2.0 X
           音轨质量 100.0 %
           复制 CRC C9313616
           复制成功

      音轨  9

           文件名 E:\新建文件夹eac\neon futrue II\09. 音轨09 .wav

           峰值电平 100.0 %
           抓取速度 1.7 X
           音轨质量 99.9 %
           复制 CRC 47A88AF3
           复制成功

      音轨 10

           文件名 E:\新建文件夹eac\neon futrue II\10. 音轨10 .wav

           峰值电平 100.0 %
           抓取速度 2.0 X
           音轨质量 100.0 %
           复制 CRC 66ED27AD
           复制成功

      音轨 11

           文件名 E:\新建文件夹eac\neon futrue II\11. 音轨11 .wav

           峰值电平 97.0 %
           抓取速度 2.2 X
           音轨质量 100.0 %
           复制 CRC 34B3B7C3
           复制成功

      音轨 12

           文件名 E:\新建文件夹eac\neon futrue II\12. 音轨12 .wav

           峰值电平 100.0 %
           抓取速度 2.0 X
           音轨质量 100.0 %
           复制 CRC C92DC79B
           复制成功

      没有错误发生

      状态报告结尾



      评分

      参与人数 1CD +240 收起 理由
      最终之战 + 240

      查看全部评分





      老虎原抓:Michel'Le《Michel'Le》1989/分轨FLAC/BD
      老虎原抓:Victoria Wilson James 《 Perseverance》1991/分轨FLAC/BD
       成长值: 33645

      1万

      主题

      2万

      帖子

      76万

      积分

      音乐掌门人

      Rank: 20Rank: 20Rank: 20Rank: 20Rank: 20

      积分
      768571

      名人勋章社区QQ达人分享勋章精华帖达人灌水勋章

      推荐
      发表于 2019-4-18 21:53:11 | 只看该作者
      CD的照片或是扫描图,需要上传一下

      本人发布的资源,有密码的话都是:www.m-instyle.cn
      关于链接失效的说明(度盘好友分享的说明)
      http://www.m-instyle.cn/thread-117499-1-1.html     
      紧急通告:115,快传等网盘取消了分享功能礼包码链接全部失效
      http://www.m-instyle.cn/thread-122759-1-1.html
      您需要登录后才可以回帖 登录 | 注册

      本版积分规则

      快速回复 返回顶部 返回列表
      最精准免费平特一肖-最精准平特一肖-最快开奖报码