<th id="thxwy"><option id="thxwy"></option></th>

      <tr id="thxwy"></tr>

    1. 最近看过此主题的会员

      查看: 273|回复: 0
      打印 上一主题 下一主题

      [欧美] 原抓:Boys Noize《Mayday》2016/WAV分轨/度盘

      [复制链接]

      5

      主题

      32

      帖子

      1701

      积分

      当红偶像

      Rank: 4

      积分
      1701
      跳转到指定楼层
      1#
      发表于 2019-4-19 03:05:23 | 只看该作者 |只看大图 回帖奖励 |倒序浏览 |阅读模式

      注册会员,获得无损资源下载地址,享受高品质音乐。

      您需要 登录 才可以下载或查看,没有帐号?注册

      x
      本帖最后由 lzslcc123 于 2019-4-19 12:26 编辑


      专辑名: Mayday
      制作人: Boys Noize
      风格: (电子) Glitch Hop、Ghetto House等(很多真的分不清什么风格)
      资源格式: WAV
      版本: 德版
      发行时间: 2016年05月20日
      地区: 德国
      语言: 英语




      专辑曲目:01.Overthrow
      02.Mayday
      03.Dynamite
      04.Rock the Bells
      05.Euphoria
      06.2 Live
      07.Would You Listen
      08.Revolt
      09.Starchild
      10.Midnight
      11.Los Ni?os
      12.Hardkotzen
      13.Birthday


      游客,如果您要查看本帖隐藏内容请回复


      (有时候光驱莫名其妙断开,还以为软件出问题,,换了好几次版本)
      Exact Audio Copy V1.2 from 12. August 2016

      EAC 抓取日志文件从22. 三月 2019, 0:13

      未知艺术家 / 未知标题

      使用驱动器  :HL-DT-STDVDRAM GP60NB60   Adapter: 1  ID: 0

      读取模式      : 可靠Secure
      使用精确流     : 是
      清空音频缓存    : 是
      使用 C2 指示器 : 否

      读取偏移校正:               : 0
      读取 Lead-In 和 Lead-Out : 否
      用静音填充抓取中丢失偏移的采样       : 是
      去除首尾静音块               : 否
      在CRC 计算中使用了空样本       : 是
      已用接口                  : Win NT 及 2000 本地 Win32 接口
      间隙处理                  : 没检测到,因此追加到上一曲目

      所用输出模式: : 内部 WAV 函数
      样本格式    : 44.100 Hz; 16 Bit; 立体声


      已抓取 CD 的 TOC

           音轨 |    起始    |    长度    |  起始扇区  |  结束扇区  
          --------------------------------------------
            1 |  0:00.00 |  4:43.12 |      0 |  21236
            2 |  4:43.12 |  3:18.24 |  21237 |  36110
            3 |  8:01.36 |  3:14.13 |  36111 |  50673
            4 | 11:15.49 |  2:50.33 |  50674 |  63456
            5 | 14:06.07 |  4:34.13 |  63457 |  84019
            6 | 18:40.20 |  3:25.34 |  84020 |  99428
            7 | 22:05.54 |  3:14.56 |  99429 | 114034
            8 | 25:20.35 |  3:03.72 | 114035 | 127831
            9 | 28:24.32 |  4:32.25 | 127832 | 148256
           10 | 32:56.57 |  4:33.66 | 148257 | 168797
           11 | 37:30.48 |  4:01.13 | 168798 | 186885
           12 | 41:31.61 |  3:05.47 | 186886 | 200807
           13 | 44:37.33 |  3:14.19 | 200808 | 215376


      音轨  1

           文件名 D:\新建文件夹eac\Mayday\01 音轨01.wav

           峰值电平 100.0 %
           抓取速度 1.3 X
           音轨质量 100.0 %
           复制 CRC 4381BB0B
           复制成功

      音轨  2

           文件名 D:\新建文件夹eac\Mayday\02 音轨02.wav

           峰值电平 100.0 %
           抓取速度 1.4 X
           音轨质量 100.0 %
           复制 CRC 26157171
           复制成功

      音轨  3

           文件名 D:\新建文件夹eac\Mayday\03 音轨03.wav

           峰值电平 100.0 %
           抓取速度 1.5 X
           音轨质量 100.0 %
           复制 CRC 0D8E77E1
           复制成功

      音轨  4

           文件名 D:\新建文件夹eac\Mayday\04 音轨04.wav

           峰值电平 100.0 %
           抓取速度 1.6 X
           音轨质量 100.0 %
           复制 CRC CA9D000C
           复制成功

      音轨  5

           文件名 D:\新建文件夹eac\Mayday\05 音轨05.wav

           峰值电平 100.0 %
           抓取速度 1.7 X
           音轨质量 100.0 %
           复制 CRC CE3D2D34
           复制成功

      音轨  6

           文件名 D:\新建文件夹eac\Mayday\06 音轨06.wav

           峰值电平 100.0 %
           抓取速度 1.8 X
           音轨质量 100.0 %
           复制 CRC 92C130A5
           复制成功

      音轨  7

           文件名 D:\新建文件夹eac\Mayday\07 音轨07.wav

           峰值电平 100.0 %
           抓取速度 1.8 X
           音轨质量 100.0 %
           复制 CRC 2EE89C06
           复制成功

      音轨  8

           文件名 D:\新建文件夹eac\Mayday\08 音轨08.wav

           峰值电平 100.0 %
           抓取速度 1.6 X
           音轨质量 99.9 %
           复制 CRC 2A1D9C1C
           复制成功

      音轨  9

           文件名 D:\新建文件夹eac\Mayday\09 音轨09.wav

           峰值电平 100.0 %
           抓取速度 2.1 X
           音轨质量 100.0 %
           复制 CRC 51CB2C2C
           复制成功

      音轨 10

           文件名 D:\新建文件夹eac\Mayday\10 音轨10.wav

           峰值电平 100.0 %
           抓取速度 2.0 X
           音轨质量 99.9 %
           复制 CRC 1A516EF2
           复制成功

      音轨 11

           文件名 D:\新建文件夹eac\Mayday\11 音轨11.wav

           峰值电平 100.0 %
           抓取速度 2.3 X
           音轨质量 100.0 %
           复制 CRC 05FEFCAC
           复制成功

      音轨 12

           文件名 D:\新建文件夹eac\Mayday\12 音轨12.wav

           峰值电平 100.0 %
           抓取速度 1.9 X
           音轨质量 99.9 %
           复制 CRC D6185A52
           复制成功

      音轨 13

           文件名 D:\新建文件夹eac\Mayday\13 音轨13.wav

           峰值电平 100.0 %
           抓取速度 2.3 X
           音轨质量 100.0 %
           复制 CRC 1DCD7B83
           复制成功

      没有错误发生

      状态报告结尾

      ---- CUETools DB Plugin V2.1.6

      [CTDB TOCID: NQKqDmiyxDiOMox5ZySQtm8b3EE-] found
      Submit result: NQKqDmiyxDiOMox5ZySQtm8b3EE- has been confirmed
      Track | CTDB Status
        1   | (17/18) Accurately ripped
        2   | (17/18) Accurately ripped
        3   | (17/18) Accurately ripped
        4   | (17/18) Accurately ripped
        5   | (17/18) Accurately ripped
        6   | (17/18) Accurately ripped
        7   | (17/18) Accurately ripped
        8   | (17/18) Accurately ripped
        9   | (17/18) Accurately ripped
      10   | (17/18) Accurately ripped
      11   | (17/18) Accurately ripped
      12   | (17/18) Accurately ripped
      13   | (17/18) Accurately ripped


      评分

      参与人数 1CD +240 收起 理由
      最终之战 + 240

      查看全部评分





      老虎原抓:Victoria Wilson James 《 Perseverance》1991/分轨FLAC/BD
      原抓:Kaskade《Strobelite Seduction》2008/WAV分轨/度盘
      您需要登录后才可以回帖 登录 | 注册

      本版积分规则

      快速回复 返回顶部 返回列表
      最精准免费平特一肖-最精准平特一肖-最快开奖报码