<th id="thxwy"><option id="thxwy"></option></th>

      <tr id="thxwy"></tr>

    1. 最近看过此主题的会员

      查看: 242|回复: 0
      打印 上一主题 下一主题

      [欧美] 原抓:Kaskade《Strobelite Seduction》2008/WAV分轨/度盘

      [复制链接]

      5

      主题

      32

      帖子

      1701

      积分

      当红偶像

      Rank: 4

      积分
      1701
      跳转到指定楼层
      1#
      发表于 2019-4-19 03:45:52 | 只看该作者 |只看大图 回帖奖励 |倒序浏览 |阅读模式

      注册会员,获得无损资源下载地址,享受高品质音乐。

      您需要 登录 才可以下载或查看,没有帐号?注册

      x
      本帖最后由 lzslcc123 于 2019-4-19 12:22 编辑


      专辑名: Strobelite Seduction
      制作人: Kaskade
      风格: (电子)House
      资源格式: WAV
      版本: 美版
      发行时间: 2008年06月3日
      地区: 美国
      语言: 英语


      专辑曲目:01.Move for Me
      02.Angel on My Shoulder
      03.Back on You
      04.Step One Two
      05.Pose
      06.I Remember
      07.Borrowed Theme
      08.I'll Never Dream
      09.One Heart
      10.Your Love Is Black


      Kaskade这专是我最喜欢的了,尤其是人声和老鼠的合作,后来Kaskade越来越商业,有的歌真的听不下去
      我抓了很多电子CD,但是有的没有日志,没法发出来(实际上还是因为懒),后面可能会重抓一遍,会经常来这里发资源


      游客,如果您要查看本帖隐藏内容请回复






      Exact Audio Copy V1.2 from 12. August 2016

      EAC 抓取日志文件从22. 三月 2019, 16:42

      未知艺术家 / 未知标题

      使用驱动器  :HL-DT-STDVDRAM GP60NB60   Adapter: 1  ID: 0

      读取模式      : 可靠Secure
      使用精确流     : 是
      清空音频缓存    : 是
      使用 C2 指示器 : 否

      读取偏移校正:               : 0
      读取 Lead-In 和 Lead-Out : 否
      用静音填充抓取中丢失偏移的采样       : 是
      去除首尾静音块               : 否
      在CRC 计算中使用了空样本       : 是
      已用接口                  : Win NT 及 2000 本地 Win32 接口
      间隙处理                  : 没检测到,因此追加到上一曲目

      所用输出模式: : 内部 WAV 函数
      样本格式    : 44.100 Hz; 16 Bit; 立体声


      已抓取 CD 的 TOC

           音轨 |    起始    |    长度    |  起始扇区  |  结束扇区  
          --------------------------------------------
            1 |  0:00.00 |  3:57.22 |      0 |  17796
            2 |  3:57.22 |  3:47.34 |  17797 |  34855
            3 |  7:44.56 |  3:42.57 |  34856 |  51562
            4 | 11:27.38 |  3:20.24 |  51563 |  66586
            5 | 14:47.62 |  3:34.35 |  66587 |  82671
            6 | 18:22.22 |  4:43.03 |  82672 | 103899
            7 | 23:05.25 |  3:44.19 | 103900 | 120718
            8 | 26:49.44 |  3:47.51 | 120719 | 137794
            9 | 30:37.20 |  4:00.29 | 137795 | 155823
           10 | 34:37.49 |  4:32.02 | 155824 | 176225


      音轨  1

           文件名 D:\新建文件夹eac\Kaskade\01 音轨01.wav

           峰值电平 99.0 %
           抓取速度 2.6 X
           音轨质量 100.0 %
           复制 CRC 32529855
           复制成功

      音轨  2

           文件名 D:\新建文件夹eac\Kaskade\02 音轨02.wav

           峰值电平 98.0 %
           抓取速度 3.2 X
           音轨质量 100.0 %
           复制 CRC 30AC1545
           复制成功

      音轨  3

           文件名 D:\新建文件夹eac\Kaskade\03 音轨03.wav

           峰值电平 99.7 %
           抓取速度 2.8 X
           音轨质量 99.9 %
           复制 CRC 5B6C2B88
           复制成功

      音轨  4

           文件名 D:\新建文件夹eac\Kaskade\04 音轨04.wav

           峰值电平 97.6 %
           抓取速度 3.5 X
           音轨质量 100.0 %
           复制 CRC D5E5E1EF
           复制成功

      音轨  5

           文件名 D:\新建文件夹eac\Kaskade\05 音轨05.wav

           峰值电平 98.4 %
           抓取速度 3.1 X
           音轨质量 99.9 %
           复制 CRC 63CCFE94
           复制成功

      音轨  6

           文件名 D:\新建文件夹eac\Kaskade\06 音轨06.wav

           峰值电平 99.8 %
           抓取速度 4.1 X
           音轨质量 100.0 %
           复制 CRC BB8808C0
           复制成功

      音轨  7

           文件名 D:\新建文件夹eac\Kaskade\07 音轨07.wav

           峰值电平 98.0 %
           抓取速度 4.2 X
           音轨质量 100.0 %
           复制 CRC 39135A7D
           复制成功

      音轨  8

           文件名 D:\新建文件夹eac\Kaskade\08 音轨08.wav

           峰值电平 97.2 %
           抓取速度 4.3 X
           音轨质量 100.0 %
           复制 CRC 27C81F2A
           复制成功

      音轨  9

           文件名 D:\新建文件夹eac\Kaskade\09 音轨09.wav

           峰值电平 98.0 %
           抓取速度 3.8 X
           音轨质量 99.9 %
           复制 CRC 2276E876
           复制成功

      音轨 10

           文件名 D:\新建文件夹eac\Kaskade\10 音轨10.wav

           峰值电平 98.8 %
           抓取速度 4.7 X
           音轨质量 100.0 %
           复制 CRC 347FCE4E
           复制成功

      没有错误发生

      状态报告结尾

      ---- CUETools DB Plugin V2.1.6

      [CTDB TOCID: FfwYXWvziyUc0Ebey5FtNvW5YHE-] found
      Submit result: FfwYXWvziyUc0Ebey5FtNvW5YHE- has been confirmed
      Track | CTDB Status
        1   | (30/30) Accurately ripped
        2   | (30/30) Accurately ripped
        3   | (30/30) Accurately ripped
        4   | (30/30) Accurately ripped
        5   | (30/30) Accurately ripped
        6   | (30/30) Accurately ripped
        7   | (30/30) Accurately ripped
        8   | (30/30) Accurately ripped
        9   | (30/30) Accurately ripped
      10   | (30/30) Accurately ripped
















      评分

      参与人数 1CD +240 收起 理由
      最终之战 + 240

      查看全部评分





      原抓:Boys Noize《Mayday》2016/WAV分轨/度盘
      老虎原抓:Stephanie Mills《Home》1989/分轨FLAC/BD
      您需要登录后才可以回帖 登录 | 注册

      本版积分规则

      快速回复 返回顶部 返回列表
      最精准免费平特一肖-最精准平特一肖-最快开奖报码