<th id="thxwy"><option id="thxwy"></option></th>

      <tr id="thxwy"></tr>

    1. 最近看过此主题的会员

      查看: 279|回复: 0
      打印 上一主题 下一主题

      [欧美] 原抓:Kaskade 《I Remember》 2014/WAV分轨/度盘

      [复制链接]

      5

      主题

      32

      帖子

      1701

      积分

      当红偶像

      Rank: 4

      积分
      1701
      跳转到指定楼层
      1#
      发表于 2019-4-19 14:06:22 | 只看该作者 |只看大图 回帖奖励 |倒序浏览 |阅读模式

      注册会员,获得无损资源下载地址,享受高品质音乐。

      您需要 登录 才可以下载或查看,没有帐号?注册

      x
      专辑名: I Remember
      制作人: Kaskade
      风格: (电子)House
      资源格式: WAV
      版本: 美版
      发行时间: 2014年07月22日
      地区: 美国
      语言: 英语







      专辑曲目:01.I Remember (Strobelite Mix)
      02.Atmosphere
      03.Angel On My Shoulder
      04.Turn it Down
      05.Stars Align
      06.Eyes
      07.Move For Me
      08.Lessons in Love
      09.Be Still
      10.No One Knows Who We Are
      11.Dynasty
      12.Raining
      13.Fire in Your New Shoes
      14.Last Chance
      15.4AM
      16.Room for Happiness (ICE Mix)
      17.I'll Never Dream I'm In Love


      Kaskade2014发的一张精选专(说难听点就是炒冷饭),这张CD的质量应该比我前面发的那张08年的好


      游客,如果您要查看本帖隐藏内容请回复
      Exact Audio Copy V1.0 beta 3 from 29. August 2011

      EAC 抓取日志文件从28. 三月 2019, 17:28

      未知艺术家 / 未知标题

      使用驱动器  :HL-DT-STDVDRAM GP60NB60   Adapter: 1  ID: 0

      读取模式      : 可靠Secure
      使用精确流     : 是
      清空音频缓存    : 是
      使用 C2 指示器 : 否

      读取偏移校正:               : 0
      读取 Lead-In 和 Lead-Out : 否
      用静音填充抓取中丢失偏移的采样       : 是
      去除首尾静音块               : 是
      在CRC 计算中使用了空样本       : 是
      已用接口                  : Win NT 及 2000 本地 Win32 接口
      间隙处理                  : 没检测到,因此追加到上一曲目

      所用输出模式: : 内部 WAV 函数
      样本格式    : 44.100 Hz; 16 Bit; 立体声


      已抓取 CD 的 TOC

           音轨 |    起始    |    长度    |  起始扇区  |  结束扇区  
          --------------------------------------------
            1 |  0:00.00 |  4:41.35 |      0 |  21109
            2 |  4:41.35 |  3:51.32 |  21110 |  38466
            3 |  8:32.67 |  3:45.29 |  38467 |  55370
            4 | 12:18.21 |  5:12.45 |  55371 |  78815
            5 | 17:30.66 |  4:16.62 |  78816 |  98077
            6 | 21:47.53 |  5:15.28 |  98078 | 121730
            7 | 27:03.06 |  3:55.66 | 121731 | 139421
            8 | 30:58.72 |  4:14.05 | 139422 | 158476
            9 | 35:13.02 |  3:44.27 | 158477 | 175303
           10 | 38:57.29 |  3:50.03 | 175304 | 192556
           11 | 42:47.32 |  3:15.05 | 192557 | 207186
           12 | 46:02.37 |  3:55.43 | 207187 | 224854
           13 | 49:58.05 |  2:38.40 | 224855 | 236744
           14 | 52:36.45 |  4:17.64 | 236745 | 256083
           15 | 56:54.34 |  4:16.59 | 256084 | 275342
           16 | 61:11.18 |  4:54.72 | 275343 | 297464
           17 | 66:06.15 |  5:17.09 | 297465 | 321248


      音轨  1

           文件名 E:\新建文件夹eac\I Remember\01 音轨01.wav

           峰值电平 97.0 %
           抓取速度 1.3 X
           音轨质量 100.0 %
           复制 CRC 62B1410E
           复制成功

      音轨  2

           文件名 E:\新建文件夹eac\I Remember\02 音轨02.wav

           峰值电平 97.0 %
           抓取速度 1.2 X
           音轨质量 99.9 %
           复制 CRC C18AC9BE
           复制成功

      音轨  3

           文件名 E:\新建文件夹eac\I Remember\03 音轨03.wav

           峰值电平 97.0 %
           抓取速度 1.5 X
           音轨质量 100.0 %
           复制 CRC D783A8CF
           复制成功

      音轨  4

           文件名 E:\新建文件夹eac\I Remember\04 音轨04.wav

           峰值电平 97.0 %
           抓取速度 1.7 X
           音轨质量 100.0 %
           复制 CRC 96BF0E5C
           复制成功

      音轨  5

           文件名 E:\新建文件夹eac\I Remember\05 音轨05.wav

           峰值电平 97.0 %
           抓取速度 1.7 X
           音轨质量 100.0 %
           复制 CRC 01C54D98
           复制成功

      音轨  6

           文件名 E:\新建文件夹eac\I Remember\06 音轨06.wav

           峰值电平 95.1 %
           抓取速度 1.7 X
           音轨质量 99.9 %
           复制 CRC DC74323F
           复制成功

      音轨  7

           文件名 E:\新建文件夹eac\I Remember\07 音轨07.wav

           峰值电平 97.0 %
           抓取速度 2.0 X
           音轨质量 100.0 %
           复制 CRC 05EE674B
           复制成功

      音轨  8

           文件名 E:\新建文件夹eac\I Remember\08 音轨08.wav

           峰值电平 97.0 %
           抓取速度 2.0 X
           音轨质量 100.0 %
           复制 CRC 1C90F721
           复制成功

      音轨  9

           文件名 E:\新建文件夹eac\I Remember\09 音轨09.wav

           峰值电平 97.0 %
           抓取速度 2.1 X
           音轨质量 100.0 %
           复制 CRC 79271CC9
           复制成功

      音轨 10

           文件名 E:\新建文件夹eac\I Remember\10 音轨10.wav

           峰值电平 97.0 %
           抓取速度 2.1 X
           音轨质量 100.0 %
           复制 CRC 5BD7CA80
           复制成功

      音轨 11

           文件名 E:\新建文件夹eac\I Remember\11 音轨11.wav

           峰值电平 97.0 %
           抓取速度 2.1 X
           音轨质量 100.0 %
           复制 CRC 0A5A3683
           复制成功

      音轨 12

           文件名 E:\新建文件夹eac\I Remember\12 音轨12.wav

           峰值电平 97.0 %
           抓取速度 2.3 X
           音轨质量 100.0 %
           复制 CRC C0843058
           复制成功

      音轨 13

           文件名 E:\新建文件夹eac\I Remember\13 音轨13.wav

           峰值电平 97.0 %
           抓取速度 2.2 X
           音轨质量 100.0 %
           复制 CRC 91A30D50
           复制成功

      音轨 14

           文件名 E:\新建文件夹eac\I Remember\14 音轨14.wav

           峰值电平 97.0 %
           抓取速度 2.4 X
           音轨质量 100.0 %
           复制 CRC 9C502416
           复制成功

      音轨 15

           文件名 E:\新建文件夹eac\I Remember\15 音轨15.wav

           峰值电平 97.0 %
           抓取速度 2.5 X
           音轨质量 100.0 %
           复制 CRC 5BB4DF08
           复制成功

      音轨 16

           文件名 E:\新建文件夹eac\I Remember\16 音轨16.wav

           峰值电平 97.0 %
           抓取速度 2.6 X
           音轨质量 100.0 %
           复制 CRC B5638A2B
           复制成功

      音轨 17

           文件名 E:\新建文件夹eac\I Remember\17 音轨17.wav

           峰值电平 97.0 %
           抓取速度 2.7 X
           音轨质量 100.0 %
           复制 CRC 21070D4F
           复制成功

      没有错误发生

      状态报告结尾

      评分

      参与人数 1CD +240 收起 理由
      最终之战 + 240 精彩的帖子,辛苦了

      查看全部评分





      老虎原抓:森高千里《非実力派宣言》1989/分轨FLAC/BD
      原抓:deadmau5 《4×4=12》 2010/WAV分轨/度盘
      您需要登录后才可以回帖 登录 | 注册

      本版积分规则

      快速回复 返回顶部 返回列表
      最精准免费平特一肖-最精准平特一肖-最快开奖报码