<th id="thxwy"><option id="thxwy"></option></th>

      <tr id="thxwy"></tr>

    1. 最近看过此主题的会员

      查看: 328|回复: 1
      打印 上一主题 下一主题

      [欧美] 原抓:deadmau5 《4×4=12》 2010/WAV分轨/度盘

      [复制链接]

      5

      主题

      32

      帖子

      1701

      积分

      当红偶像

      Rank: 4

      积分
      1701
      跳转到指定楼层
      1#
      发表于 2019-4-19 14:46:09 | 只看该作者 |只看大图 回帖奖励 |倒序浏览 |阅读模式

      注册会员,获得无损资源下载地址,享受高品质音乐。

      您需要 登录 才可以下载或查看,没有帐号?注册

      x
      专辑名: 4×4=12
      制作人: deadmau5
      风格: (电子)Progressive House、Dubstep
      资源格式: WAV
      版本: 美版
      发行时间: 2010年12月06日
      地区: 加拿大
      语言: 英语






      专辑曲目:01.Some Chords
      02.Sofi Needs a Ladder
      03.A City In Florida
      04.Bad Selection
      05.Animal Rights
      06.I Said (Michael Woods Remix)
      07.Cthulhu Sleeps
      08.Right This Second
      09.Raise Your Weapon
      10.One Trick Pony
      11.Everything Before

      老鼠经典专,有很多经典的Progressive House还有两首老鼠很少做的Dubstep。
      这专是mix过的,建议使用无缝播放的播放器

      游客,如果您要查看本帖隐藏内容请回复
      Exact Audio Copy V1.0 beta 3 from 29. August 2011

      EAC 抓取日志文件从29. 三月 2019, 13:59

      未知艺术家 / 未知标题

      使用驱动器  :HL-DT-STDVDRAM GP60NB60   Adapter: 1  ID: 0

      读取模式      : 可靠Secure
      使用精确流     : 是
      清空音频缓存    : 是
      使用 C2 指示器 : 否

      读取偏移校正:               : 0
      读取 Lead-In 和 Lead-Out : 否
      用静音填充抓取中丢失偏移的采样       : 是
      去除首尾静音块               : 是
      在CRC 计算中使用了空样本       : 是
      已用接口                  : Win NT 及 2000 本地 Win32 接口
      间隙处理                  : 没检测到,因此追加到上一曲目

      所用输出模式: : 内部 WAV 函数
      样本格式    : 44.100 Hz; 16 Bit; 立体声


      已抓取 CD 的 TOC

           音轨 |    起始    |    长度    |  起始扇区  |  结束扇区  
          --------------------------------------------
            1 |  0:00.00 |  8:04.03 |      0 |  36302
            2 |  8:04.03 |  5:33.47 |  36303 |  61324
            3 | 13:37.50 |  5:02.33 |  61325 |  84007
            4 | 18:40.08 |  5:01.03 |  84008 | 106585
            5 | 23:41.11 |  4:59.66 | 106586 | 129076
            6 | 28:41.02 |  5:52.26 | 129077 | 155502
            7 | 34:33.28 |  9:59.56 | 155503 | 200483
            8 | 44:33.09 |  7:23.68 | 200484 | 233776
            9 | 51:57.02 |  8:15.48 | 233777 | 270949
           10 | 60:12.50 |  3:36.06 | 270950 | 287155
           11 | 63:48.56 |  6:05.72 | 287156 | 314602


      音轨  1

           文件名 E:\新建文件夹eac\4x4=12\01 音轨01.wav

           峰值电平 98.8 %
           抓取速度 1.3 X
           音轨质量 99.9 %
           复制 CRC D38466BD
           复制成功

      音轨  2

           文件名 E:\新建文件夹eac\4x4=12\02 音轨02.wav

           峰值电平 98.8 %
           抓取速度 1.4 X
           音轨质量 99.9 %
           复制 CRC 653E5296
           复制成功

      音轨  3

           文件名 E:\新建文件夹eac\4x4=12\03 音轨03.wav

           峰值电平 98.8 %
           抓取速度 1.5 X
           音轨质量 99.9 %
           复制 CRC 9F9AA4B3
           复制成功

      音轨  4

           文件名 E:\新建文件夹eac\4x4=12\04 音轨04.wav

           峰值电平 98.8 %
           抓取速度 1.8 X
           音轨质量 100.0 %
           复制 CRC 85794A5A
           复制成功

      音轨  5

           文件名 E:\新建文件夹eac\4x4=12\05 音轨05.wav

           峰值电平 98.8 %
           抓取速度 1.9 X
           音轨质量 100.0 %
           复制 CRC FB7D1589
           复制成功

      音轨  6

           文件名 E:\新建文件夹eac\4x4=12\06 音轨06.wav

           峰值电平 98.8 %
           抓取速度 2.1 X
           音轨质量 100.0 %
           复制 CRC E8DB5CF4
           复制成功

      音轨  7

           文件名 E:\新建文件夹eac\4x4=12\07 音轨07.wav

           峰值电平 98.8 %
           抓取速度 2.4 X
           音轨质量 100.0 %
           复制 CRC CD6AE4B0
           复制成功

      音轨  8

           文件名 E:\新建文件夹eac\4x4=12\08 音轨08.wav

           峰值电平 98.8 %
           抓取速度 2.3 X
           音轨质量 99.9 %
           复制 CRC 93FD588B
           复制成功

      音轨  9

           文件名 E:\新建文件夹eac\4x4=12\09 音轨09.wav

           峰值电平 95.9 %
           抓取速度 2.6 X
           音轨质量 100.0 %
           复制 CRC B9FD07C9
           复制成功

      音轨 10

           文件名 E:\新建文件夹eac\4x4=12\10 音轨10.wav

           峰值电平 98.8 %
           抓取速度 2.4 X
           音轨质量 100.0 %
           复制 CRC 1E4AF015
           复制成功

      音轨 11

           文件名 E:\新建文件夹eac\4x4=12\11 音轨11.wav

           峰值电平 98.8 %
           抓取速度 2.7 X
           音轨质量 100.0 %
           复制 CRC DF9E43BA
           复制成功

      没有错误发生

      状态报告结尾

      评分

      参与人数 1CD +240 收起 理由
      最终之战 + 240

      查看全部评分





      原抓:Kaskade 《I Remember》 2014/WAV分轨/度盘
      老虎原抓:Alyssa Milano 《Locked Inside a Dream》1991/分轨FLAC/BD
       成长值: 430

      0

      主题

      19

      帖子

      934

      积分

      VIP1

      Rank: 4

      积分
      934
      推荐
      发表于 2019-4-22 10:08:16 | 只看该作者
      感谢分享
      您需要登录后才可以回帖 登录 | 注册

      本版积分规则

      快速回复 返回顶部 返回列表
      最精准免费平特一肖-最精准平特一肖-最快开奖报码