<th id="thxwy"><option id="thxwy"></option></th>

      <tr id="thxwy"></tr>

    1. 最近看过此主题的会员

      查看: 240|回复: 1
      打印 上一主题 下一主题

      [欧美] 老虎原抓:Alyssa Milano 《Locked Inside a Dream》1991/分轨FLAC/BD

      [复制链接]

      27

      主题

      109

      帖子

      6051

      积分

      人气天王

      Rank: 5Rank: 5

      积分
      6051
      跳转到指定楼层
      1#
      发表于 2019-4-26 19:20:42 | 只看该作者 |只看大图 回帖奖励 |倒序浏览 |阅读模式

      注册会员,获得无损资源下载地址,享受高品质音乐。

      您需要 登录 才可以下载或查看,没有帐号?注册

      x


      新的一波来了。这周有些忙,所以晚了点。。。


      专辑英文名: Locked Inside a Dream
      歌手: Alyssa Milano
      别名: 艾莉莎·米兰诺
      音乐风格: 流行POP
      资源格式: FLAC抓
      版本: [日本首版]
      发行时间: 1991
      地区: 美国
      语言: 英语



















      简介:


      艾莉莎·米兰诺(Alyssa Milano),生于纽约布鲁克林一个演艺家庭,7岁时受音乐剧《安妮》的影响,开始对演艺生活产生兴趣,一年后便如愿参加了该剧的巡回演出,走上了她的表演之路。1984年12岁的她走上荧屏,出演电视影集《妙管家》,这部拍摄长达8年的影集为她的人生增添了多姿的色彩,连同三座青少年演员奖的最佳女配角奖陪伴着她的成长。其间还陆续出演了一些电影,不过反映不是很强烈。1997年出演电视影集《飞越情?!?,其出色的表演赢得另一部影集《圣女魔咒》的主角。她在出演的电影《吸血惊情》(Embrace of the Vampire),有着出色的表现。
      米兰诺在1989至1992年期间,出版过5张唱片,分别是:
      1989年《Look in My Heart》
      1989年《Alyssa》
      1990年《The Best in the World》
      1991年《Locked Inside a Dream》
      1992年《Do You See Me?》


      专辑曲目:


      01. No Secret
      02. I Want Your Number
      03. Every Single kiss
      04. Closer To You
      05. Your Lips Don t Lie
      06. Through It All
      07. Say A Prayer Tonight
      08. Locked Inside A Dream
      09. Count On Me
      10. New Sensation





      游客,如果您要查看本帖隐藏内容请回复





      LOG:


      Exact Audio Copy V1.3 from 2. September 2016


      EAC extraction logfile from 21. April 2019, 4:10


      Alyssa Milano / Locked Inside A Dream


      Used drive  : TSSTcorpCDDVDW SE-208GB   Adapter: 1  ID: 1


      Read mode               : Secure
      Utilize accurate stream : Yes
      Defeat audio cache      : No
      Make use of C2 pointers : No


      Read offset correction                      : 6
      Overread into Lead-In and Lead-Out          : No
      Fill up missing offset samples with silence : Yes
      Delete leading and trailing silent blocks   : No
      Null samples used in CRC calculations       : Yes
      Used interface                              : Native Win32 interface for Win NT & 2000
      Gap handling                                : Not detected, thus appended to previous track


      Used output format : Internal WAV Routines
      Sample format      : 44.100 Hz; 16 Bit; Stereo




      TOC of the extracted CD


           Track |   Start  |  Length  | Start sector | End sector
          ---------------------------------------------------------
              1  |  0:00.00 |  4:25.45 |         0    |    19919   
              2  |  4:25.45 |  4:50.10 |     19920    |    41679   
              3  |  9:15.55 |  4:00.70 |     41680    |    59749   
              4  | 13:16.50 |  4:00.32 |     59750    |    77781   
              5  | 17:17.07 |  4:56.03 |     77782    |    99984   
              6  | 22:13.10 |  4:50.70 |     99985    |   121804   
              7  | 27:04.05 |  4:56.20 |    121805    |   144024   
              8  | 32:00.25 |  3:57.42 |    144025    |   161841   
              9  | 35:57.67 |  4:35.73 |    161842    |   182539   
             10  | 40:33.65 |  4:15.62 |    182540    |   201726   




      Track  1


           Filename E:\MUSIC\01 No Secret.wav


           Peak level 81.8 %
           Extraction speed 3.6 X
           Track quality 99.9 %
           Copy CRC 4C401F71
           Accurately ripped (confidence 2)  [A7C8D290]  (AR v2)
           Copy OK


      Track  2


           Filename E:\MUSIC\02 I Want Your Number.wav


           Peak level 95.9 %
           Extraction speed 2.0 X
           Track quality 99.9 %
           Copy CRC 2B57AF63
           Accurately ripped (confidence 2)  [F8D0CA2A]  (AR v2)
           Copy OK


      Track  3


           Filename E:\MUSIC\03 Every Single Kiss.wav


           Peak level 88.4 %
           Extraction speed 2.3 X
           Track quality 100.0 %
           Copy CRC EC2EAF10
           Accurately ripped (confidence 2)  [FB92529F]  (AR v2)
           Copy OK


      Track  4


           Filename E:\MUSIC\04 Closer To You.wav


           Peak level 84.2 %
           Extraction speed 2.5 X
           Track quality 100.0 %
           Copy CRC ED6BB959
           Accurately ripped (confidence 2)  [952054B8]  (AR v2)
           Copy OK


      Track  5


           Filename E:\MUSIC\05 Your Lips Don't Lie.wav


           Peak level 89.8 %
           Extraction speed 2.6 X
           Track quality 100.0 %
           Copy CRC 2172C785
           Accurately ripped (confidence 2)  [0B17DBDD]  (AR v2)
           Copy OK


      Track  6


           Filename E:\MUSIC\06 Through It All.wav


           Peak level 85.6 %
           Extraction speed 2.8 X
           Track quality 100.0 %
           Copy CRC 8AA35283
           Accurately ripped (confidence 2)  [33855DC2]  (AR v2)
           Copy OK


      Track  7


           Filename E:\MUSIC\07 Say A Prayer Tonight.wav


           Peak level 89.9 %
           Extraction speed 3.0 X
           Track quality 100.0 %
           Copy CRC F5CBE028
           Accurately ripped (confidence 2)  [467B315D]  (AR v2)
           Copy OK


      Track  8


           Filename E:\MUSIC\08 Locked Inside A Dream.wav


           Peak level 91.1 %
           Extraction speed 3.1 X
           Track quality 100.0 %
           Copy CRC 098E52DE
           Accurately ripped (confidence 2)  [0172D292]  (AR v2)
           Copy OK


      Track  9


           Filename E:\MUSIC\09 Count On Me.wav


           Peak level 89.1 %
           Extraction speed 3.2 X
           Track quality 100.0 %
           Copy CRC 306CF523
           Accurately ripped (confidence 2)  [C2C8945C]  (AR v2)
           Copy OK


      Track 10


           Filename E:\MUSIC\10 New Sensation.wav


           Peak level 90.8 %
           Extraction speed 3.3 X
           Track quality 100.0 %
           Copy CRC BF37FB19
           Accurately ripped (confidence 2)  [398A2944]  (AR v2)
           Copy OK




      All tracks accurately ripped


      No errors occurred


      End of status report


      ---- CUETools DB Plugin V2.1.6


      [CTDB TOCID: c7CY0bn_9h2oNmDQUmQz_4qpymE-] found
      Submit result: c7CY0bn_9h2oNmDQUmQz_4qpymE- has been confirmed
      Track | CTDB Status
        1   | (9/9) Accurately ripped
        2   | (9/9) Accurately ripped
        3   | (9/9) Accurately ripped
        4   | (9/9) Accurately ripped
        5   | (9/9) Accurately ripped
        6   | (9/9) Accurately ripped
        7   | (9/9) Accurately ripped
        8   | (9/9) Accurately ripped
        9   | (9/9) Accurately ripped
      10   | (9/9) Accurately ripped




      ==== Log checksum 9B8C8ED16A9CAB415E755ADFCF401E0E35835B2AF588ACE76E304DD3FB18EC5D ====


      评分

      参与人数 1CD +240 收起 理由
      最终之战 + 240

      查看全部评分





      原抓:deadmau5 《4×4=12》 2010/WAV分轨/度盘
      老虎原抓:Billie Myers《Growing, Pains》1997/分轨FLAC/BD
       成长值: 2625

      0

      主题

      116

      帖子

      250

      积分

      VIP3

      Rank: 6Rank: 6

      积分
      250
      2#
      发表于 2019-4-26 22:20:06 | 只看该作者
      感谢楼主分享的好音乐。
      您需要登录后才可以回帖 登录 | 注册

      本版积分规则

      快速回复 返回顶部 返回列表
      最精准免费平特一肖-最精准平特一肖-最快开奖报码