<th id="thxwy"><option id="thxwy"></option></th>

      <tr id="thxwy"></tr>

    1. 最近看过此主题的会员

      查看: 299|回复: 3
      打印 上一主题 下一主题

      [华语] 原抓:脑浊《仅限二环以内》2009/WAV_整轨/度盘

      [复制链接]
       成长值: 3975

      31

      主题

      161

      帖子

      1万

      积分

      VIP4

      Rank: 7Rank: 7Rank: 7

      积分
      16187
      跳转到指定楼层
      1#
      发表于 2019-5-1 13:37:43 | 只看该作者 |只看大图 回帖奖励 |倒序浏览 |阅读模式

      注册会员,获得无损资源下载地址,享受高品质音乐。

      您需要 登录 才可以下载或查看,没有帐号?注册

      x
      仅限二环以内
      又名: Downtown Production
      表演者: 脑浊  脑浊
      专辑类型: 专辑
      介质: CD
      发行时间: 2009-05-01
      出版者: Bad News
      唱片数: 1
      条形码: 9787880903614
      ISRC(中国): CNA500800310

      简介  · · · · · ·
        全部录音在亚洲第一的录音棚“乐佳轩”完成,缩混在东京完成。这张专辑依旧延续了脑浊乐队一贯的国际化音乐风格和高水平制作水准?!禦ock N Roll is Not So Bad》等歌曲脑浊还在专辑中尝试了雷鬼风格。 《理想的新街口》这样不同往常的歌曲必然能让听者感受到一个日趋成熟的脑浊乐队.《TV SHOW》其实是一首很久前就已创作出的歌曲,在这张专辑中,通过贝司的部分加入了全新的构架,用主唱肖容的话说:"通过制作人的启发,我们试图在本曲中演绎电子乐Loop的感觉。
         《DownTown Production -仅限二环以内》这张专辑让脑浊的歌迷等了很久。发行日期一拖再拖,历时一年多的专辑制作,集聚了国内外众多知名音乐人,这一切仿佛预示出这将是一张制作精美的专辑。09年草莓音乐节,这一切有了揭晓,脑浊乐队在草莓音乐节的第二天,发行了自己全新的第五张专辑《DownTown Production -仅限二环以内》。唱片由日本Bad News 唱片授权中国北京摩登天空唱片独家发行?!禗ownTown Production -仅限二环以内》脑浊想表达的是,在狭小的空间内创造着无限的可能。这是一个敏感的世界,庆幸的是我还可以幽默地活着,肖容的这句话注定会在这个即将来临夏天很流行。

      曲目  · · · · · ·
      Box On The Broken Ball 球盒世界
      Go On The Tv Show 更好的TV Show
      Ideal Of Shinjuku 理想的新街口
      Come Back Home 回家
      Ambulance Of Love 爱的急救车
      Rock’n’roll Lover 空弹的琴人
      Rock’n’roll Is Not So Bad 摇滚乐还成
      Trouble 麻烦事儿
      I’m The Trouble Shooter 我是顽主
      Song Of Guerillas 游击队之歌
      Summer Night 仲夏之夜
      You’re welcome to this city - Beijing 欢迎你来到这个城市-北京

      喜欢这张专辑的朋友,请购买正版CD支持,谢谢?。?!


      游客,如果您要查看本帖隐藏内容请回复


      1. Exact Audio Copy V1.3 from 2. September 2016

      2. EAC 抓取日志文件从20. 四月 2019, 23:44

      3. 脑浊 / 仅限二环以内

      4. 使用驱动器  :Optiarc DVD RW AD-7730U   Adapter: 1  ID: 0

      5. 读取模式      : 可靠Secure
      6. 使用精确流     : 是
      7. 清空音频缓存    : 否
      8. 使用 C2 指示器 : 是

      9. 读取偏移校正:               : 6
      10. 读取 Lead-In 和 Lead-Out : 否
      11. 用静音填充抓取中丢失偏移的采样       : 是
      12. 去除首尾静音块               : 否
      13. 在CRC 计算中使用了空样本       : 是
      14. 已用接口                  : Win NT 及 2000 本地 Win32 接口

      15. 所用输出模式: : 内部 WAV 函数
      16. 样本格式    : 44.100 Hz; 16 Bit; 立体声


      17. 已抓取 CD 的 TOC

      18.      音轨 |    起始    |    长度    |  起始扇区  |  结束扇区  
      19.     --------------------------------------------
      20.       1 |  0:00.00 |  3:57.11 |      0 |  17785
      21.       2 |  3:57.11 |  4:14.03 |  17786 |  36838
      22.       3 |  8:11.14 |  4:15.05 |  36839 |  55968
      23.       4 | 12:26.19 |  2:43.41 |  55969 |  68234
      24.       5 | 15:09.60 |  4:16.28 |  68235 |  87462
      25.       6 | 19:26.13 |  4:36.46 |  87463 | 108208
      26.       7 | 24:02.59 |  4:03.11 | 108209 | 126444
      27.       8 | 28:05.70 |  4:37.06 | 126445 | 147225
      28.       9 | 32:43.01 |  4:18.18 | 147226 | 166593
      29.      10 | 37:01.19 |  2:45.44 | 166594 | 179012
      30.      11 | 39:46.63 |  3:47.46 | 179013 | 196083
      31.      12 | 43:34.34 |  4:19.24 | 196084 | 215532


      32. 范围状态及错误

      33. 已选择范围

      34.      文件名 G:\EAC\脑浊 - 2009《仅限二环以内》[WAV整轨]\脑浊 - 仅限二环以内.wav

      35.      峰值电平 100.0 %
      36.      抓取速度 10.2 X
      37.      范围质量 99.9 %
      38.      复制 CRC BE43094A
      39.      复制成功

      40. 没有错误发生


      41. AccurateRip 摘要

      42. 音轨  1  在数据库中不存在
      43. 音轨  2  在数据库中不存在
      44. 音轨  3  在数据库中不存在
      45. 音轨  4  在数据库中不存在
      46. 音轨  5  在数据库中不存在
      47. 音轨  6  在数据库中不存在
      48. 音轨  7  在数据库中不存在
      49. 音轨  8  在数据库中不存在
      50. 音轨  9  在数据库中不存在
      51. 音轨 10  在数据库中不存在
      52. 音轨 11  在数据库中不存在
      53. 音轨 12  在数据库中不存在

      54. 没有任何音轨在 AccurateRip 数据库中有记录

      55. 状态报告结尾

      56. ---- CUETools DB Plugin V2.1.6

      57. [CTDB TOCID: .9sSmTFBk_.Tb9kpppc_aFrDw6I-] found
      58. Submit result: .9sSmTFBk_.Tb9kpppc_aFrDw6I- has been confirmed
      59. Track | CTDB Status
      60.   1   | (2/2) Accurately ripped
      61.   2   | (2/2) Accurately ripped
      62.   3   | (2/2) Accurately ripped
      63.   4   | (2/2) Accurately ripped
      64.   5   | (2/2) Accurately ripped
      65.   6   | (2/2) Accurately ripped
      66.   7   | (2/2) Accurately ripped
      67.   8   | (2/2) Accurately ripped
      68.   9   | (2/2) Accurately ripped
      69. 10   | (2/2) Accurately ripped
      70. 11   | (2/2) Accurately ripped
      71. 12   | (2/2) Accurately ripped
      复制代码





      评分

      参与人数 1CD +240 收起 理由
      最终之战 + 240 很棒的帖子,支持

      查看全部评分





      zvbmxf原抓:德死亡金属 Deserted Fear《Drowned By Humanity》2019/FLAC/BD
      老虎原抓:Sinitta 《Toy Boy 》1987/分轨FLAC/BD

      28

      主题

      771

      帖子

      4万

      积分

      天王巨星

      Rank: 7Rank: 7Rank: 7

      积分
      42351

      社区QQ达人VIP勋章

      2#
      发表于 2019-5-4 01:55:45 | 只看该作者
      这张专很多雷鬼的元素啊

      194

      主题

      1302

      帖子

      4万

      积分

      天王巨星

      Rank: 7Rank: 7Rank: 7

      积分
      48993

      社区QQ达人灌水勋章

      3#
      发表于 2019-5-8 18:48:10 | 只看该作者
      原抓必须下载,多谢分享
       成长值: 680

      0

      主题

      20

      帖子

      65

      积分

      VIP2

      Rank: 5Rank: 5

      积分
      65
      4#
      发表于 2019-5-28 09:24:10 | 只看该作者

      这个必须下载,多谢分享
      您需要登录后才可以回帖 登录 | 注册

      本版积分规则

      快速回复 返回顶部 返回列表
      最精准免费平特一肖-最精准平特一肖-最快开奖报码