<th id="thxwy"><option id="thxwy"></option></th>

      <tr id="thxwy"></tr>

    1. 最近看过此主题的会员

      查看: 245|回复: 0
      打印 上一主题 下一主题

      [欧美] 老虎原抓:Sinitta 《Toy Boy 》1987/分轨FLAC/BD

      [复制链接]

      27

      主题

      109

      帖子

      6051

      积分

      人气天王

      Rank: 5Rank: 5

      积分
      6051
      跳转到指定楼层
      1#
      发表于 2019-5-4 23:23:45 | 只看该作者 |只看大图 回帖奖励 |倒序浏览 |阅读模式

      注册会员,获得无损资源下载地址,享受高品质音乐。

      您需要 登录 才可以下载或查看,没有帐号?注册

      x

      五一出去了,回来晚了,发的晚了,不好意思。。。




      专辑英文名: Toy Boy
      歌手: Sinitta
      别名:辛尼塔

      音乐风格:都市音乐 Urban、当代节奏布鲁斯 Contemporary R&B、流行舞曲 Dance-Pop
      资源格式: FLAC抓
      版本: [日本首版]
      发行时间: 1987
      地区: 美国
      语言: 英语










      简介:

      Sinitta (born Sinitta Renet Malone, 19 October 1968 is an American-British citation needed actress and singer who has lived in the United Kingdom for most of her career. She is best known for her hit records in the 1980s; including "So Macho", "Toy Boy", "Cross My Broken Heart" and a 1989 cover of "Right Back Where We Started From", and her close relationship with Simon Cowell.

      专辑曲目:



      01 Toy Boy
      02 G.t.o.
      03 Cross My Broken Heart
      04 Who's Gonna Catch You (When You Fall)
      05 Rock Me Slow
      06 Feels Like the First Time
      07 Oh Boy (You've Got a Lot to Learn)
      08 If I Let You Go
      09 So Macho
      10 Toy Boy (Extended Bicep mix)



      游客,如果您要查看本帖隐藏内容请回复



      LOG:
      Exact Audio Copy V1.3 from 2. September 2016


      EAC extraction logfile from 21. April 2019, 5:48


      Sinitta / Toy Boy


      Used drive  : TSSTcorpCDDVDW SE-208GB   Adapter: 1  ID: 1


      Read mode               : Secure
      Utilize accurate stream : Yes
      Defeat audio cache      : No
      Make use of C2 pointers : No


      Read offset correction                      : 6
      Overread into Lead-In and Lead-Out          : No
      Fill up missing offset samples with silence : Yes
      Delete leading and trailing silent blocks   : No
      Null samples used in CRC calculations       : Yes
      Used interface                              : Native Win32 interface for Win NT & 2000
      Gap handling                                : Not detected, thus appended to previous track


      Used output format : Internal WAV Routines
      Sample format      : 44.100 Hz; 16 Bit; Stereo




      TOC of the extracted CD


           Track |   Start  |  Length  | Start sector | End sector
          ---------------------------------------------------------
              1  |  0:00.37 |  3:30.58 |        37    |    15844   
              2  |  3:31.20 |  3:33.47 |     15845    |    31866   
              3  |  7:04.67 |  3:46.50 |     31867    |    48866   
              4  | 10:51.42 |  3:20.40 |     48867    |    63906   
              5  | 14:12.07 |  4:56.60 |     63907    |    86166   
              6  | 19:08.67 |  3:52.55 |     86167    |   103621   
              7  | 23:01.47 |  3:31.08 |    103622    |   119454   
              8  | 26:32.55 |  4:36.37 |    119455    |   140191   
              9  | 31:09.17 |  3:26.65 |    140192    |   155706   
             10  | 34:36.07 |  7:38.55 |    155707    |   190111   




      Track  1


           Filename E:\MUSIC\01 Toy Boy.wav


           Peak level 100.0 %
           Extraction speed 1.8 X
           Track quality 100.0 %
           Copy CRC D0094ACD
           Accurately ripped (confidence 3)  [3C2975A1]  (AR v2)
           Copy OK


      Track  2


           Filename E:\MUSIC\02 G.t.o..wav


           Peak level 99.5 %
           Extraction speed 2.3 X
           Track quality 100.0 %
           Copy CRC 307DBBA4
           Accurately ripped (confidence 2)  [B4BBCDC3]  (AR v2)
           Copy OK


      Track  3


           Filename E:\MUSIC\03 Cross My Broken Heart.wav


           Peak level 98.5 %
           Extraction speed 2.5 X
           Track quality 100.0 %
           Copy CRC D4941EDC
           Accurately ripped (confidence 2)  [248DF5E2]  (AR v2)
           Copy OK


      Track  4


           Filename E:\MUSIC\04 Who's Gonna Catch You (When You Fall).wav


           Peak level 100.0 %
           Extraction speed 2.6 X
           Track quality 99.9 %
           Copy CRC BBF905CF
           Cannot be verified as accurate (confidence 3)  [D9CF7339], AccurateRip returned [35C8176A]  (AR v2)
           Copy OK


      Track  5


           Filename E:\MUSIC\05 Rock Me Slow.wav


           Peak level 91.7 %
           Extraction speed 2.8 X
           Track quality 99.9 %
           Copy CRC 4BE01B9E
           Cannot be verified as accurate (confidence 3)  [898A6757], AccurateRip returned [295F0E6C]  (AR v2)
           Copy OK


      Track  6


           Filename E:\MUSIC\06 Feels Like the First Time.wav


           Peak level 100.0 %
           Extraction speed 2.9 X
           Track quality 99.9 %
           Copy CRC 1EA1B95A
           Cannot be verified as accurate (confidence 3)  [2EEDA58B], AccurateRip returned [26E09C47]  (AR v2)
           Copy OK


      Track  7


           Filename E:\MUSIC\07 Oh Boy (You've Got a Lot to Learn).wav


           Peak level 89.6 %
           Extraction speed 3.1 X
           Track quality 100.0 %
           Copy CRC 1D1324CC
           Cannot be verified as accurate (confidence 3)  [E73B4ADF], AccurateRip returned [6D04A918]  (AR v2)
           Copy OK


      Track  8


           Filename E:\MUSIC\08 If I Let You Go.wav


           Peak level 93.8 %
           Extraction speed 3.3 X
           Track quality 100.0 %
           Copy CRC 2A0E5993
           Cannot be verified as accurate (confidence 3)  [5CD26C5D], AccurateRip returned [56F16D6C]  (AR v2)
           Copy OK


      Track  9


           Filename E:\MUSIC\09 So Macho.wav


           Peak level 86.3 %
           Extraction speed 3.4 X
           Track quality 100.0 %
           Copy CRC 3C70CD3E
           Cannot be verified as accurate (confidence 3)  [9A7C8B7B], AccurateRip returned [4CE8D9EF]  (AR v2)
           Copy OK


      Track 10


           Filename E:\MUSIC\10 Toy Boy (Extended Bicep mix).wav


           Peak level 89.9 %
           Extraction speed 3.6 X
           Track quality 100.0 %
           Copy CRC AF307AB7
           Cannot be verified as accurate (confidence 3)  [0DC563F3], AccurateRip returned [1D2D2D2D]  (AR v2)
           Copy OK




      3 音轨精确校准抓取
      7 音轨不能准确校验


      Some tracks could not be verified as accurate


      No errors occurred


      End of status report


      ---- CUETools DB Plugin V2.1.6


      [CTDB TOCID: dTFepE2J.djp2UIVDCYRd8k7ID0-] found
      Submit result: already submitted
      Track | CTDB Status
        1   | (22/22) Accurately ripped
        2   | (22/22) Accurately ripped
        3   | (22/22) Accurately ripped
        4   | (22/22) Accurately ripped
        5   | (22/22) Accurately ripped
        6   | (22/22) Accurately ripped
        7   | (22/22) Accurately ripped
        8   | (22/22) Accurately ripped
        9   | (22/22) Accurately ripped
      10   | (22/22) Accurately ripped




      ==== Log checksum F503872DE5B8F31F05298A7B5B4E4BB89D2280ADFAD14CFD9C396B7C2422D4B4 ====







      评分

      参与人数 1CD +240 收起 理由
      最终之战 + 240

      查看全部评分





      原抓:脑浊《仅限二环以内》2009/WAV_整轨/度盘
      老虎原抓:Patti LaBelle《Be Yourself 》1989/分轨FLAC/BD
      您需要登录后才可以回帖 登录 | 注册

      本版积分规则

      快速回复 返回顶部 返回列表
      最精准免费平特一肖-最精准平特一肖-最快开奖报码