<th id="thxwy"><option id="thxwy"></option></th>

      <tr id="thxwy"></tr>

    1. 最近看过此主题的会员

      查看: 225|回复: 1
      打印 上一主题 下一主题

      [欧美] 老虎原抓:Native《Native》1993/分轨FLAC/BD

      [复制链接]

      27

      主题

      109

      帖子

      6053

      积分

      人气天王

      Rank: 5Rank: 5

      积分
      6053
      跳转到指定楼层
      1#
      发表于 2019-5-5 00:07:43 | 只看该作者 |只看大图 回帖奖励 |倒序浏览 |阅读模式

      注册会员,获得无损资源下载地址,享受高品质音乐。

      您需要 登录 才可以下载或查看,没有帐号?注册

      x




      专辑英文名: Native
      歌手: Native
      别名:本土组合
      音乐风格:都市音乐 Urban、当代节奏布鲁斯 Contemporary R&B
      资源格式: FLAC抓
      版本: [日本首版]
      发行时间: 1993
      地区: 法国
      语言: 法语















      简介:
      这个组合还真找不到介绍,不过两个黑妹子唱的很给力的??!


      专辑曲目:
      01 Il y a longtemps
      02 Si la vie demande ?a
      03 Pas le temps
      04 Terres de feu
      05 Dans tes bras
      06 Tu planes sur moi
      07 Emmène-moi
      08 Les yeux de velours
      09 Quand c'est pour moi
      10 Poussière d'étoiles
      11 Sometimes It Snows in April
      12 Si la vie demande ?a (Indigenous remix)





      游客,如果您要查看本帖隐藏内容请回复



      LOG:
      Exact Audio Copy V1.3 from 2. September 2016


      EAC extraction logfile from 21. April 2019, 8:17


      Native / Native


      Used drive  : TSSTcorpCDDVDW SE-208GB   Adapter: 1  ID: 1


      Read mode               : Secure
      Utilize accurate stream : Yes
      Defeat audio cache      : No
      Make use of C2 pointers : No


      Read offset correction                      : 6
      Overread into Lead-In and Lead-Out          : No
      Fill up missing offset samples with silence : Yes
      Delete leading and trailing silent blocks   : No
      Null samples used in CRC calculations       : Yes
      Used interface                              : Native Win32 interface for Win NT & 2000
      Gap handling                                : Not detected, thus appended to previous track


      Used output format : Internal WAV Routines
      Sample format      : 44.100 Hz; 16 Bit; Stereo




      TOC of the extracted CD


           Track |   Start  |  Length  | Start sector | End sector
          ---------------------------------------------------------
              1  |  0:00.37 |  4:26.15 |        37    |    20001   
              2  |  4:26.52 |  4:57.45 |     20002    |    42321   
              3  |  9:24.22 |  3:53.35 |     42322    |    59831   
              4  | 13:17.57 |  4:55.00 |     59832    |    81956   
              5  | 18:12.57 |  4:49.53 |     81957    |   103684   
              6  | 23:02.35 |  4:23.40 |    103685    |   123449   
              7  | 27:26.00 |  5:00.42 |    123450    |   145991   
              8  | 32:26.42 |  4:09.15 |    145992    |   164681   
              9  | 36:35.57 |  4:29.63 |    164682    |   184919   
             10  | 41:05.45 |  4:36.35 |    184920    |   205654   
             11  | 45:42.05 |  5:19.15 |    205655    |   229594   
             12  | 51:01.20 |  4:52.17 |    229595    |   251511   




      Track  1


           Filename E:\MUSIC\01 Il y a longtemps.wav


           Peak level 97.7 %
           Extraction speed 3.8 X
           Track quality 100.0 %
           Copy CRC 3146F987
           Track not present in AccurateRip database
           Copy OK


      Track  2


           Filename E:\MUSIC\02 Si la vie demande ?a.wav


           Peak level 95.3 %
           Extraction speed 2.1 X
           Track quality 100.0 %
           Copy CRC 728432AF
           Track not present in AccurateRip database
           Copy OK


      Track  3


           Filename E:\MUSIC\03 Pas le temps.wav


           Peak level 98.9 %
           Extraction speed 2.3 X
           Track quality 100.0 %
           Copy CRC F11A01E2
           Track not present in AccurateRip database
           Copy OK


      Track  4


           Filename E:\MUSIC\04 Terres de feu.wav


           Peak level 98.6 %
           Extraction speed 2.5 X
           Track quality 100.0 %
           Copy CRC 1832BC46
           Track not present in AccurateRip database
           Copy OK


      Track  5


           Filename E:\MUSIC\05 Dans tes bras.wav


           Peak level 94.4 %
           Extraction speed 2.6 X
           Track quality 100.0 %
           Copy CRC 8360E8C9
           Track not present in AccurateRip database
           Copy OK


      Track  6


           Filename E:\MUSIC\06 Tu planes sur moi.wav


           Peak level 96.0 %
           Extraction speed 2.8 X
           Track quality 100.0 %
           Copy CRC 42D4AF1D
           Track not present in AccurateRip database
           Copy OK


      Track  7


           Filename E:\MUSIC\07 Emmène-moi.wav


           Peak level 95.2 %
           Extraction speed 2.9 X
           Track quality 100.0 %
           Copy CRC 5526DD64
           Track not present in AccurateRip database
           Copy OK


      Track  8


           Filename E:\MUSIC\08 Les yeux de velours.wav


           Peak level 96.8 %
           Extraction speed 3.1 X
           Track quality 100.0 %
           Copy CRC CB539E56
           Track not present in AccurateRip database
           Copy OK


      Track  9


           Filename E:\MUSIC\09 Quand c'est pour moi.wav


           Peak level 95.0 %
           Extraction speed 3.2 X
           Track quality 100.0 %
           Copy CRC 18BECDB6
           Track not present in AccurateRip database
           Copy OK


      Track 10


           Filename E:\MUSIC\10 Poussière d'étoiles.wav


           Peak level 100.0 %
           Extraction speed 3.3 X
           Track quality 100.0 %
           Copy CRC EAC94420
           Track not present in AccurateRip database
           Copy OK


      Track 11


           Filename E:\MUSIC\11 Sometimes It Snows in April.wav


           Peak level 92.5 %
           Extraction speed 3.5 X
           Track quality 100.0 %
           Copy CRC 1C821CBC
           Track not present in AccurateRip database
           Copy OK


      Track 12


           Filename E:\MUSIC\12 Si la vie demande ?a (Indigenous remix).wav


           Peak level 97.8 %
           Extraction speed 3.6 X
           Track quality 100.0 %
           Copy CRC 5576891C
           Track not present in AccurateRip database
           Copy OK




      None of the tracks are present in the AccurateRip database


      No errors occurred


      End of status report


      ---- CUETools DB Plugin V2.1.6


      [CTDB TOCID: NPB4xX94bclKrqX93YrTIpk91DQ-] disk not present in database
      Submit result: NPB4xX94bclKrqX93YrTIpk91DQ- has been uploaded




      ==== Log checksum 579A8B2CE6D252DB9472413818C5F8A562E23476424431A2CBA84050D582D0B1 ====


      评分

      参与人数 1CD +240 收起 理由
      最终之战 + 240

      查看全部评分





      老虎原抓:Patti LaBelle《Be Yourself 》1989/分轨FLAC/BD
      老虎原抓:Rose Royce, GG..《Their Greatest Hits 1》1993/分轨FLAC/BD
       成长值: 3045

      0

      主题

      116

      帖子

      256

      积分

      VIP3

      Rank: 6Rank: 6

      积分
      256
      2#
      发表于 2019-5-5 10:28:07 | 只看该作者
      感谢楼主分享的好音乐。
      您需要登录后才可以回帖 登录 | 注册

      本版积分规则

      快速回复 返回顶部 返回列表
      最精准免费平特一肖-最精准平特一肖-最快开奖报码