<th id="thxwy"><option id="thxwy"></option></th>

      <tr id="thxwy"></tr>

    1. 最近看过此主题的会员

      查看: 294|回复: 0
      打印 上一主题 下一主题

      [日韩] 老虎原抓:松田博幸《エッジオブサマー 》1993/分轨FLAC/BD

      [复制链接]

      27

      主题

      109

      帖子

      6051

      积分

      人气天王

      Rank: 5Rank: 5

      积分
      6051
      跳转到指定楼层
      1#
      发表于 2019-5-5 00:33:11 | 只看该作者 |只看大图 回帖奖励 |倒序浏览 |阅读模式

      注册会员,获得无损资源下载地址,享受高品质音乐。

      您需要 登录 才可以下载或查看,没有帐号?注册

      x





      专辑英文名: エッジオブサマー
      歌手: 松田博幸
      音乐风格: JPOP日本流行
      资源格式: FLAC抓
      版本: [日本首版]
      发行时间: 1993
      地区: 日本
      语言: 日语
















      简介:
      松田 博幸(まつだ ひろゆき、1964年11月24日生)は、長崎県出身、日本の歌手?作曲家。1992年徳間ジャパンコミュニケーションズよりデビュー。同年リリースのセカンドシングル「君の素敵にHALLELUJAH」がオリコン最高22位とスマッシュヒット。1997年WEA JAPANに移籍。海老原博幸の本名と同姓同名




      专辑曲目:


      01 波?AcousticVersion
      02 星
      03 君をもう一度愛したいから(Edge of Summer Mix)
      04 別れまぎわのONE MORE KISS
      05 ひとりで泳ぐ夏(Saxphone Mix)
      06 NO NO NOたまんない
      07 それは君がくれた朝に
      08 Without?。伲铮?/font>
      09 雨だけが知っている
      10 抱きしめればFARAWAY(Bay Side Mix)
      11 波


      游客,如果您要查看本帖隐藏内容请回复



      LOG:


      Exact Audio Copy V1.3 from 2. September 2016


      EAC extraction logfile from 21. April 2019, 5:12


      松田博幸 / エッジオブサマー


      Used drive  : TSSTcorpCDDVDW SE-208GB   Adapter: 1  ID: 1


      Read mode               : Secure
      Utilize accurate stream : Yes
      Defeat audio cache      : No
      Make use of C2 pointers : No


      Read offset correction                      : 6
      Overread into Lead-In and Lead-Out          : No
      Fill up missing offset samples with silence : Yes
      Delete leading and trailing silent blocks   : No
      Null samples used in CRC calculations       : Yes
      Used interface                              : Native Win32 interface for Win NT & 2000
      Gap handling                                : Not detected, thus appended to previous track


      Used output format : Internal WAV Routines
      Sample format      : 44.100 Hz; 16 Bit; Stereo




      TOC of the extracted CD


           Track |   Start  |  Length  | Start sector | End sector
          ---------------------------------------------------------
              1  |  0:00.00 |  2:54.07 |         0    |    13056   
              2  |  2:54.07 |  6:01.25 |     13057    |    40156   
              3  |  8:55.32 |  4:47.53 |     40157    |    61734   
              4  | 13:43.10 |  5:20.72 |     61735    |    85806   
              5  | 19:04.07 |  4:27.28 |     85807    |   105859   
              6  | 23:31.35 |  5:04.07 |    105860    |   128666   
              7  | 28:35.42 |  5:50.48 |    128667    |   154964   
              8  | 34:26.15 |  5:05.37 |    154965    |   177876   
              9  | 39:31.52 |  5:14.08 |    177877    |   201434   
             10  | 44:45.60 |  5:43.72 |    201435    |   227231   
             11  | 50:29.57 |  6:27.33 |    227232    |   256289   




      Track  1


           Filename E:\MUSIC\01 波?AcousticVersion.wav


           Peak level 76.4 %
           Extraction speed 1.6 X
           Track quality 100.0 %
           Copy CRC 07EF19A4
           Track not present in AccurateRip database
           Copy OK


      Track  2


           Filename E:\MUSIC\02 星.wav


           Peak level 100.0 %
           Extraction speed 2.1 X
           Track quality 100.0 %
           Copy CRC 526B9B47
           Track not present in AccurateRip database
           Copy OK


      Track  3


           Filename E:\MUSIC\03 君をもう一度愛したいから(Edge of Summer Mix).wav


           Peak level 100.0 %
           Extraction speed 2.4 X
           Track quality 100.0 %
           Copy CRC A816ECB7
           Track not present in AccurateRip database
           Copy OK


      Track  4


           Filename E:\MUSIC\04 別れまぎわのONE MORE KISS.wav


           Peak level 100.0 %
           Extraction speed 2.6 X
           Track quality 100.0 %
           Copy CRC BF0D6F13
           Track not present in AccurateRip database
           Copy OK


      Track  5


           Filename E:\MUSIC\05 ひとりで泳ぐ夏(Saxphone Mix).wav


           Peak level 85.6 %
           Extraction speed 2.8 X
           Track quality 100.0 %
           Copy CRC 28F8C607
           Track not present in AccurateRip database
           Copy OK


      Track  6


           Filename E:\MUSIC\06 NO NO NOたまんない.wav


           Peak level 100.0 %
           Extraction speed 2.9 X
           Track quality 99.9 %
           Copy CRC 5418E25B
           Track not present in AccurateRip database
           Copy OK


      Track  7


           Filename E:\MUSIC\07 それは君がくれた朝に.wav


           Peak level 100.0 %
           Extraction speed 3.1 X
           Track quality 100.0 %
           Copy CRC 88FBC324
           Track not present in AccurateRip database
           Copy OK


      Track  8


           Filename E:\MUSIC\08 Without?。伲铮?wav


           Peak level 100.0 %
           Extraction speed 3.3 X
           Track quality 100.0 %
           Copy CRC 9E238169
           Track not present in AccurateRip database
           Copy OK


      Track  9


           Filename E:\MUSIC\09 雨だけが知っている.wav


           Peak level 100.0 %
           Extraction speed 3.5 X
           Track quality 100.0 %
           Copy CRC B2BEFBF7
           Track not present in AccurateRip database
           Copy OK


      Track 10


           Filename E:\MUSIC\10 抱きしめればFARAWAY(Bay Side Mix).wav


           Peak level 100.0 %
           Extraction speed 3.6 X
           Track quality 99.9 %
           Copy CRC E205BC78
           Track not present in AccurateRip database
           Copy OK


      Track 11


           Filename E:\MUSIC\11 波.wav


           Peak level 100.0 %
           Extraction speed 3.7 X
           Track quality 99.9 %
           Copy CRC 1E8933AF
           Track not present in AccurateRip database
           Copy OK




      None of the tracks are present in the AccurateRip database


      No errors occurred


      End of status report


      ---- CUETools DB Plugin V2.1.6


      [CTDB TOCID: aB00WNWgzi5Pnyp8nI8wtq_d_is-] found
      Submit result: aB00WNWgzi5Pnyp8nI8wtq_d_is- has been confirmed
      Track | CTDB Status
        1   | (3/3) Accurately ripped
        2   | (3/3) Accurately ripped
        3   | (3/3) Accurately ripped
        4   | (3/3) Accurately ripped
        5   | (3/3) Accurately ripped
        6   | (3/3) Accurately ripped
        7   | (3/3) Accurately ripped
        8   | (3/3) Accurately ripped
        9   | (3/3) Accurately ripped
      10   | (3/3) Accurately ripped
      11   | (3/3) Accurately ripped




      ==== Log checksum FCFF1DBAB2ABD451CC4637D861DF7A46B3CE0691DC1B5D24E32138ED41D1B8EF ====



      评分

      参与人数 1CD +240 收起 理由
      最终之战 + 240

      查看全部评分





      老虎原抓:Rose Royce, GG..《Their Greatest Hits 1》1993/分轨FLAC/BD
      老虎原抓:間々田 優《嘘と 夢と 何か》2008/分轨FLAC/BD
      您需要登录后才可以回帖 登录 | 注册

      本版积分规则

      快速回复 返回顶部 返回列表
      最精准免费平特一肖-最精准平特一肖-最快开奖报码