<th id="thxwy"><option id="thxwy"></option></th>

      <tr id="thxwy"></tr>

    1. 最近看过此主题的会员

      查看: 350|回复: 0
      打印 上一主题 下一主题

      [日韩] 老虎原抓:間々田 優《嘘と 夢と 何か》2008/分轨FLAC/BD

      [复制链接]

      27

      主题

      109

      帖子

      6053

      积分

      人气天王

      Rank: 5Rank: 5

      积分
      6053
      跳转到指定楼层
      1#
      发表于 2019-5-5 00:42:15 | 只看该作者 |只看大图 回帖奖励 |倒序浏览 |阅读模式

      注册会员,获得无损资源下载地址,享受高品质音乐。

      您需要 登录 才可以下载或查看,没有帐号?注册

      x



      专辑日文名: 嘘と 夢と 何か
      歌手: 間々田 優
      音乐风格: JPOP日本流行、ROCK摇滚
      资源格式: FLAC抓
      版本: [日本首版]
      发行时间: 2008
      地区: 日本
      语言: 日语











      简介:
            衝撃???。この言葉以外見つからない???。
        衝撃????????。誰しもが間々田優の曲やライブパフォーマンスに出会ったときに発する言葉。
        その人間の思い、考え、想像するダークサイドを、ここまでも直接的に表現するアーティストは、他に類をみない。
        夢、希望、絶望、孤独、痛み、悲しみ、人間が心で思い描くものを、ここまで裸体となり表現した作品は、“衝撃”以外の言葉が見つからない。
        孤高の女性シンガーソングライター、間々田優の初フルアルバムを、解き放ちます。
        メディア掲載レビューほか
        現代社会に生きる若者の`葛藤と悩み``挑戦`を歌う女性ヴォーカリスト、`間々田優`のファースト?フル?アルバム!!彼女が放つのは人間が持つ生と死、そして孤独が生んだ叫び=究極のメッセージ?ソング?!刚嬉怪小埂弗堠`ダー」など初期の椎名林檎を彷彿とさせる逸材、インパクト抜群です!





      专辑曲目:

      01. 3つ
      02. 真夜中
      03. テレビ
      04. 狼
      05. シンプル
      06. 我慢
      07. 先生
      08. 良い彼女
      09. 河沿いドローイング
      10. ボーダー
      11. 夕


      游客,如果您要查看本帖隐藏内容请回复


      LOG:


      Exact Audio Copy V1.3 from 2. September 2016


      EAC extraction logfile from 24. April 2019, 20:28


      間々田 優 / 嘘と 夢と 何か


      Used drive  : TSSTcorpCDDVDW SE-208GB   Adapter: 1  ID: 1


      Read mode               : Secure
      Utilize accurate stream : Yes
      Defeat audio cache      : No
      Make use of C2 pointers : No


      Read offset correction                      : 6
      Overread into Lead-In and Lead-Out          : No
      Fill up missing offset samples with silence : Yes
      Delete leading and trailing silent blocks   : No
      Null samples used in CRC calculations       : Yes
      Used interface                              : Native Win32 interface for Win NT & 2000
      Gap handling                                : Not detected, thus appended to previous track


      Used output format : Internal WAV Routines
      Sample format      : 44.100 Hz; 16 Bit; Stereo




      TOC of the extracted CD


           Track |   Start  |  Length  | Start sector | End sector
          ---------------------------------------------------------
              1  |  0:00.00 |  5:15.33 |         0    |    23657   
              2  |  5:15.33 |  6:44.17 |     23658    |    53974   
              3  | 11:59.50 |  3:54.37 |     53975    |    71561   
              4  | 15:54.12 |  6:17.03 |     71562    |    99839   
              5  | 22:11.15 |  5:46.22 |     99840    |   125811   
              6  | 27:57.37 |  3:15.30 |    125812    |   140466   
              7  | 31:12.67 |  3:53.16 |    140467    |   157957   
              8  | 35:06.08 |  3:50.04 |    157958    |   175211   
              9  | 38:56.12 |  5:53.71 |    175212    |   201757   
             10  | 44:50.08 |  4:39.44 |    201758    |   222726   
             11  | 49:29.52 |  5:01.26 |    222727    |   245327   




      Track  1


           Filename E:\MUSIC\01 3つ.wav


           Peak level 95.5 %
           Extraction speed 1.6 X
           Track quality 100.0 %
           Copy CRC 7E277F37
           Accurately ripped (confidence 2)  [1807E6B6]  (AR v2)
           Copy OK


      Track  2


           Filename E:\MUSIC\02 真夜中.wav


           Peak level 96.2 %
           Extraction speed 2.2 X
           Track quality 100.0 %
           Copy CRC 7C3C8D6A
           Accurately ripped (confidence 2)  [53B2053C]  (AR v2)
           Copy OK


      Track  3


           Filename E:\MUSIC\03 テレビ.wav


           Peak level 92.9 %
           Extraction speed 2.5 X
           Track quality 100.0 %
           Copy CRC F2C005B8
           Accurately ripped (confidence 2)  [EE3479D0]  (AR v2)
           Copy OK


      Track  4


           Filename E:\MUSIC\04 狼.wav


           Peak level 94.6 %
           Extraction speed 2.7 X
           Track quality 100.0 %
           Copy CRC C1A5826F
           Accurately ripped (confidence 2)  [1F6088D2]  (AR v2)
           Copy OK


      Track  5


           Filename E:\MUSIC\05 シンプル.wav


           Peak level 96.3 %
           Extraction speed 2.9 X
           Track quality 100.0 %
           Copy CRC 1D350404
           Accurately ripped (confidence 2)  [89E04898]  (AR v2)
           Copy OK


      Track  6


           Filename E:\MUSIC\06 我慢.wav


           Peak level 93.8 %
           Extraction speed 3.0 X
           Track quality 100.0 %
           Copy CRC FB495DD4
           Accurately ripped (confidence 2)  [A1103F70]  (AR v2)
           Copy OK


      Track  7


           Filename E:\MUSIC\07 先生.wav


           Peak level 96.2 %
           Extraction speed 3.2 X
           Track quality 100.0 %
           Copy CRC FFBA6223
           Accurately ripped (confidence 2)  [5C202EAF]  (AR v2)
           Copy OK


      Track  8


           Filename E:\MUSIC\08 良い彼女.wav


           Peak level 96.4 %
           Extraction speed 3.2 X
           Track quality 99.9 %
           Copy CRC 6387251F
           Accurately ripped (confidence 2)  [335F5525]  (AR v2)
           Copy OK


      Track  9


           Filename E:\MUSIC\09 河沿いドローイング.wav


           Peak level 92.5 %
           Extraction speed 3.4 X
           Track quality 100.0 %
           Copy CRC 40432422
           Accurately ripped (confidence 2)  [53D34736]  (AR v2)
           Copy OK


      Track 10


           Filename E:\MUSIC\10 ボーダー.wav


           Peak level 95.4 %
           Extraction speed 3.6 X
           Track quality 100.0 %
           Copy CRC BE00C912
           Accurately ripped (confidence 2)  [9C1D4084]  (AR v2)
           Copy OK




      Track 11


           Filename E:\MUSIC\11 夕.wav


           Peak level 94.7 %
           Extraction speed 2.0 X
           Track quality 99.7 %
           Copy CRC 0FB5E0F9
           Cannot be verified as accurate (confidence 2)  [E72F74FE], AccurateRip returned [48D60291]  (AR v2)
           Copy OK




      No tracks could be verified as accurate
      You may have a different pressing from the one(s) in the database


      No errors occurred


      End of status report




      ==== Log checksum C3E45D344029ED5EDD15460AE975F837A7521BFF7144F5A507514C8A765093FB ====


      ------------------------------------------------------------




      评分

      参与人数 1CD +240 收起 理由
      最终之战 + 240

      查看全部评分





      老虎原抓:松田博幸《エッジオブサマー 》1993/分轨FLAC/BD
      原抓补档:唐朝乐队《唐朝》(附MV)2008/WAV+DVD/BD
      您需要登录后才可以回帖 登录 | 注册

      本版积分规则

      快速回复 返回顶部 返回列表
      最精准免费平特一肖-最精准平特一肖-最快开奖报码