<th id="thxwy"><option id="thxwy"></option></th>

      <tr id="thxwy"></tr>

    1. 最近看过此主题的会员

      查看: 335|回复: 9
      打印 上一主题 下一主题

      [MV] Madonna feat. Maluma《Medellin》2019/MasterRip/1080p/BD

      [复制链接]
       成长值: 34170

      1万

      主题

      2万

      帖子

      77万

      积分

      音乐掌门人

      Rank: 20Rank: 20Rank: 20Rank: 20Rank: 20

      积分
      770708

      名人勋章社区QQ达人分享勋章精华帖达人灌水勋章

      跳转到指定楼层
      1#
      发表于 2019-6-12 18:49:43 | 只看该作者 |只看大图 回帖奖励 |倒序浏览 |阅读模式

      注册会员,获得无损资源下载地址,享受高品质音乐。

      您需要 登录 才可以下载或查看,没有帐号?注册

      x




      Madonna feat. Maluma - Medellin

      Качество: MasterRip
      Разрешение видео/развертка: 1080p
      Контейнер: MPEG4
      Видео кодек: AVC
      Аудио кодек: AAC
      Видео: 1920 x 1080 (1.778) at 25.000 fps AVC at 21,8 Мбит/сек
      Аудио: 2 канала, 48,0 КГц AAC at 320 Кбит/сек

      Формат                                   : MPEG-4
      Профиль формата                          : Base Media / Version 2
      Идентификатор кодека                     : mp42 (mp41/mp42/isom)
      Размер файла                             : 1,03 Гбайт
      Продолжительность                        : 6 м. 40 с.
      Режим общего битрейта                    : Переменный
      Общий поток                              : 22,1 Мбит/сек

      Видео
      Идентификатор                            : 1
      Формат                                   : AVC
      Формат/Информация                        : Advanced Video Codec
      Профиль формата                          : [email protected]
      Параметр CABAC формата                   : Да
      Параметр ReFrames формата                : 2 кадра
      Параметр GOP формата                     : M=1, N=30
      Идентификатор кодека                     : avc1
      Идентификатор кодека/Информация          : Advanced Video Coding
      Продолжительность                        : 6 м. 40 с.
      Вид битрейта                             : Переменный
      Битрейт                                  : 21,8 Мбит/сек
      Максимальный битрейт                     : 768 Кбит/сек
      Ширина                                   : 1920 пикселей
      Высота                                   : 1080 пикселей
      Соотношение сторон                       : 16:9
      Режим частоты кадров                     : Постоянный
      Частота кадров                           : 25,000 кадров/сек
      Цветовое пространство                    : YUV
      Субдискретизация насыщенности            : 4:2:0
      Битовая глубина                          : 8 бит
      Тип развёртки                            : Прогрессивная
      Бит/(Пиксели*Кадры)                      : 0.420
      Размер потока                            : 1,02 Гбайт (99%)
      Заголовок                                : Core Media Video
      Цветовой диапазон                        : Limited
      Основные цвета                           : BT.709
      Характеристики трансфера                 : BT.709
      Коэффициенты матрицы                     : BT.709

      Аудио
      Идентификатор                            : 2
      Формат                                   : AAC
      Формат/Информация                        : Advanced Audio Codec
      Профиль формата                          : LC
      Идентификатор кодека                     : 40
      Продолжительность                        : 6 м. 40 с.
      Продолжительность оригинала              : 6 м. 40 с.
      Вид битрейта                             : Переменный
      Битрейт                                  : 320 Кбит/сек
      Максимальный битрейт                     : 328 Кбит/сек
      Каналы                                   : 2 канала
      Расположение каналов                     : Front: L R
      Частота                                  : 48,0 КГц
      Частота кадров                           : 46,875 кадров/сек (1024 spf)
      Метод сжатия                             : С потерями
      Размер потока                            : 15,3 Мбайт (1%)
      Размер потока оригинала                  : 15,3 Мбайт (1%)
      Заголовок                                : Core Media Audio
      Язык                                     : English

      =========================================
      百度下载(阿战音乐汇总)
      游客,如果您要查看本帖隐藏内容请回复




      丁当 - 有什么不敢面对 - MP4 - 1080P - 73M - BD
      蔡依林 - 你也有今天 - MKV - 4K - 189M - BD

      本人发布的资源,有密码的话都是:www.m-instyle.cn
      关于链接失效的说明(度盘好友分享的说明)
      http://www.m-instyle.cn/thread-117499-1-1.html     
      紧急通告:115,快传等网盘取消了分享功能礼包码链接全部失效
      http://www.m-instyle.cn/thread-122759-1-1.html

      114

      主题

      165

      帖子

      1万

      积分

      人气天王

      Rank: 5Rank: 5

      积分
      10803
      2#
      发表于 2019-6-13 10:36:51 | 只看该作者
      本帖最后由 DejaVuu 于 2019-6-13 10:45 编辑

      已下载,看样子又是个风流的派对

      0

      主题

      154

      帖子

      207

      积分

      乐坛新星

      Rank: 2

      积分
      207
      3#
      发表于 2019-6-13 11:11:30 | 只看该作者
      久违了的麦当娜, 谢谢分享!

      0

      主题

      364

      帖子

      387

      积分

      乐坛新星

      Rank: 2

      积分
      387
      4#
      发表于 2019-6-13 15:29:50 | 只看该作者
      麦姐的mv吗,貌似很不错呢~

      0

      主题

      599

      帖子

      1332

      积分

      当红偶像

      Rank: 4

      积分
      1332

      社区QQ达人

      5#
      发表于 2019-6-13 19:49:33 | 只看该作者
      感谢分享,麦姐的MV.

      0

      主题

      74

      帖子

      133

      积分

      新人会员,请认真回复,若恶意回复,直接封号

      Rank: 1

      积分
      133
      6#
      发表于 2019-6-13 23:18:57 | 只看该作者
      非常感谢分享!!!

      0

      主题

      84

      帖子

      188

      积分

      乐坛新星

      Rank: 2

      积分
      188
      7#
      发表于 2019-7-12 21:49:25 | 只看该作者
      谢谢分享,下载看看

      215

      主题

      737

      帖子

      4万

      积分

      天王巨星

      Rank: 7Rank: 7Rank: 7

      积分
      46478
      9#
      发表于 2019-8-8 17:22:55 | 只看该作者
      感谢楼主分享好资源

      0

      主题

      289

      帖子

      155

      积分

      乐坛新星

      Rank: 2

      积分
      155
      10#
      发表于 2019-8-14 11:40:46 | 只看该作者
      喜欢 麦当娜的歌,多谢分享??!

      0

      主题

      433

      帖子

      794

      积分

      职业歌手

      Rank: 3Rank: 3

      积分
      794
      11#
      发表于 2019-8-23 13:20:10 | 只看该作者
      这个好像看个谢谢楼主分享
      您需要登录后才可以回帖 登录 | 注册

      本版积分规则

      快速回复 返回顶部 返回列表
      最精准免费平特一肖-最精准平特一肖-最快开奖报码