<th id="thxwy"><option id="thxwy"></option></th>

      <tr id="thxwy"></tr>

    1. 最近看过此主题的会员

      查看: 131|回复: 6
      打印 上一主题 下一主题

      [华语] 原抓:暗狱戮尸《畸形人类意识》2CD/2018特别版/WAV/BD

      [复制链接]

      3

      主题

      41

      帖子

      982

      积分

      职业歌手

      Rank: 3Rank: 3

      积分
      982

      社区QQ达人

      跳转到指定楼层
      1#
      发表于 2019-6-19 17:37:38 | 只看该作者 |只看大图 回帖奖励 |倒序浏览 |阅读模式

      注册会员,获得无损资源下载地址,享受高品质音乐。

      您需要 登录 才可以下载或查看,没有帐号?注册

      x



      《畸形人类意识 特别版》天津残酷死亡金属乐队“暗狱戮尸”第三张专辑
      表演者: 暗狱戮尸
      流派: 摇滚
      专辑类型: 专辑
      介质: CD
      发行时间: 2017-12-24
      出版者: MORT Productions
      唱片数: 2


      中国残酷死亡金属军团全新力作呈现。一如既往的Slamming残bao重音侵袭,疯狂的恶音狂澜造就2017暗狱戮尸《畸形人类意识》。首发2CD版本,发售200套推出,其中附加CD中包含从未发布的专属Mix作品2曲,由暗狱戮尸乐队精心制作完成。本次首发版有着特别的画作设计,可以和《畸形人类意识》普通版封面与封底拼凑为一副完整的画作,为死硬的暗狱Fans们带来更具意义的收藏趣味。



















      曲目  · · · · · ·

      1. 腐败的沉默 SILENCE OF DECAY 02:58
      2. 棘地凶葬 ILLUSION OF WITHERING 02:36
      3. 单方面屠杀 HATE PURGATORY 03:17
      4. 断崖下哭魂 DESPITE OF DESOLATION 03:45
      5. 天性的良知 MORTAL AWARENESS 03:09
      6. 活祭 NARCOTIC INDUCED HYPO-THERMIA 03:46
      7. 废物 FAGET(KORN cover) 05:58
      8. 垃圾场 CREMATORY(何勇 cover) 03:28
      9. 电体 ELECTRIC SHOCK(Zaliva-D Remix) 03:12
      10. 天性的良知 MORTAL AWARENESS (器乐曲) 03:09
      Bonus CD
      1. 腐败的沉默 SILENCE OF DECAY remix
      2. 单方面屠杀 HATE PURGATORY remix

      百度下载:





      游客,如果您要查看本帖隐藏内容请回复






      评分

      参与人数 1CD +400 收起 理由
      最终之战 + 400 感谢分享资源,CD包因你而精彩.

      查看全部评分





      原抓:周凤岭《雅宝路》2012/WAV/BD
      飞鱼原抓:群星《MTV Mix &amp; Match》1999 整轨WAV+LOG/BD
       成长值: 32940

      1万

      主题

      2万

      帖子

      76万

      积分

      音乐掌门人

      Rank: 20Rank: 20Rank: 20Rank: 20Rank: 20

      积分
      764257

      名人勋章社区QQ达人分享勋章精华帖达人灌水勋章

      2#
      发表于 2019-6-19 18:06:30 | 只看该作者
      Exact Audio Copy V1.3 from 2. September 2016

      EAC 抓取日志文件从28. 三月 2019, 22:33

      未知艺术家 / 未知标题

      使用驱动器  :TSSTcorpDVD+-RW SU-208GB   Adapter: 1  ID: 0

      读取模式      : 可靠Secure
      使用精确流     : 是
      清空音频缓存    : 否
      使用 C2 指示器 : 否

      组合读写偏移校正:             : 0
      读取 Lead-In 和 Lead-Out : 否
      用静音填充抓取中丢失偏移的采样       : 是
      去除首尾静音块               : 否
      在CRC 计算中使用了空样本       : 是
      已用接口                  : Win NT 及 2000 本地 Win32 接口
      间隙处理                  : 没检测到,因此追加到上一曲目

      所用输出模式: : 内部 WAV 函数
      样本格式    : 44.100 Hz; 16 Bit; 立体声


      已抓取 CD 的 TOC

           音轨 |    起始    |    长度    |  起始扇区  |  结束扇区  
          --------------------------------------------
            1 |  0:00.00 |  3:00.37 |      0 |  13536
            2 |  3:00.37 |  2:38.00 |  13537 |  25386
            3 |  5:38.37 |  3:19.00 |  25387 |  40311
            4 |  8:57.37 |  3:47.00 |  40312 |  57336
            5 | 12:44.37 |  3:11.00 |  57337 |  71661
            6 | 15:55.37 |  3:48.00 |  71662 |  88761
            7 | 19:43.37 |  6:00.00 |  88762 | 115761
            8 | 25:43.37 |  3:30.00 | 115762 | 131511
            9 | 29:13.37 |  3:14.00 | 131512 | 146061
           10 | 32:27.37 |  3:09.00 | 146062 | 160236


      音轨  1

           文件名 F:\无损\暗狱戮尸\畸形人类意识 特别版最精准免费平特一肖-最精准平特一肖-最快开奖报码