<th id="thxwy"><option id="thxwy"></option></th>

      <tr id="thxwy"></tr>

    1. 最近看过此主题的会员

      查看: 174|回复: 24
      打印 上一主题 下一主题

      A妹:Ariana Grande《 thank u, next》(Explicit)2019/Hi-Res/FLAC/BD

      [复制链接]
       成长值: 33045

      1万

      主题

      2万

      帖子

      76万

      积分

      音乐掌门人

      Rank: 20Rank: 20Rank: 20Rank: 20Rank: 20

      积分
      764561

      名人勋章社区QQ达人分享勋章精华帖达人灌水勋章

      跳转到指定楼层
      1#

      注册会员,获得无损资源下载地址,享受高品质音乐。

      您需要 登录 才可以下载或查看,没有帐号?注册

      x


      Ariana Grande / thank u, next (Explicit)

      xФормат записи/Источник записи: [TR24][OF]
      Наличие водяных знаков: Нет
      Год издания/переиздания диска: 2019
      Жанр: R&B/Pop
      Продолжительность: 00:41:04
      Наличие сканов в содержимом раздачи: Только обложка альбома

      Треклист:
      01 imagine 00:03:32
      02 needy 00:02:51
      03 NASA 00:03:02
      04 bloodline 00:03:36
      05 fake smile 00:03:28
      06 bad idea 00:04:27
      07 make up 00:02:20
      08 ghostin 00:04:31
      09 in my head 00:03:42
      10 7 rings 00:02:58
      11 thank u, next 00:03:27
      12 break up with your girlfriend, i'm bored 00:03:10


      Контейнер: FLAC (*.flac)
      Тип рипа: tracks

      Разрядность: 24/44,1
      Формат: PCM
      Количество каналов: 2.0
      =========================
      百度下载(阿战音乐汇总)
      游客,如果您要查看本帖隐藏内容请回复




      黑暗/氛围:Ager Sonus《Mithra》2019/Hi-Res/FLAC/BD
      黑胶收藏:蒂朵 Dido《Still On My Mind》2019/LP_FLAC/24_96/BD

      本人发布的资源,有密码的话都是:www.m-instyle.cn
      关于链接失效的说明(度盘好友分享的说明)
      http://www.m-instyle.cn/thread-117499-1-1.html     
      紧急通告:115,快传等网盘取消了分享功能礼包码链接全部失效
      http://www.m-instyle.cn/thread-122759-1-1.html
       成长值: 33045

      1万

      主题

      2万

      帖子

      76万

      积分

      音乐掌门人

      Rank: 20Rank: 20Rank: 20Rank: 20Rank: 20

      积分
      764561

      名人勋章社区QQ达人分享勋章精华帖达人灌水勋章

      2#
      发表于 5 天前 | 只看该作者
      foobar2000 1.4.1 / Замер динамического диапазона (DR) 1.1.1
      Дата отчёта:  2019-02-09 18:37:23

      --------------------------------------------------------------------------------
      Анализ:   Ariana Grande / thank u, next
      --------------------------------------------------------------------------------

      DR         Пики         RMS           Продолжительность трека
      --------------------------------------------------------------------------------
      DR5       -0.70 дБ    -7.66 дБ      3:32 01-imagine
      DR8       -0.71 дБ   -11.54 дБ      2:52 02-needy
      DR6       -0.62 дБ    -9.11 дБ      3:02 03-NASA
      DR5       -0.20 дБ    -6.99 дБ      3:37 04-bloodline
      DR6       -0.71 дБ    -8.25 дБ      3:29 05-fake smile
      DR4       -0.20 дБ    -6.42 дБ      4:27 06-bad idea
      DR5       -0.70 дБ    -7.48 дБ      2:21 07-make up
      DR6       -0.20 дБ    -8.06 дБ      4:31 08-ghostin
      DR7       -0.71 дБ    -9.28 дБ      3:43 09-in my head
      DR6       -0.70 дБ    -9.46 дБ      2:59 10-7 rings
      DR5       -0.70 дБ    -7.54 дБ      3:27 11-thank u, next
      DR5       -0.20 дБ    -6.97 дБ      3:10 12-break up with your girlfriend, i'm bored
      --------------------------------------------------------------------------------

      Количество треков: 12
      Реальные значения DR: DR6

      Частота:   44100 Гц
      Каналов:   2
      Разрядность:   24
      Битрейт:   1651 кбит/с
      Кодек:   FLAC
      ================================================================================



      本人发布的资源,有密码的话都是:www.m-instyle.cn
      关于链接失效的说明(度盘好友分享的说明)
      http://www.m-instyle.cn/thread-117499-1-1.html     
      紧急通告:115,快传等网盘取消了分享功能礼包码链接全部失效
      http://www.m-instyle.cn/thread-122759-1-1.html

      0

      主题

      88

      帖子

      56

      积分

      新人会员,请认真回复,若恶意回复,直接封号

      Rank: 1

      积分
      56

      论坛新人

      3#
      发表于 5 天前 | 只看该作者
      支持,谢谢楼主
      integral

      0

      主题

      371

      帖子

      215

      积分

      乐坛新星

      Rank: 2

      积分
      215

      社区QQ达人

      4#
      发表于 5 天前 | 只看该作者
      很不错的新歌手。感谢楼主分享??!

      0

      主题

      1457

      帖子

      1191

      积分

      职业歌手

      Rank: 3Rank: 3

      积分
      1191
      5#
      发表于 5 天前 | 只看该作者
      好碟,谢谢楼主分享了!

      0

      主题

      18

      帖子

      74

      积分

      新人会员,请认真回复,若恶意回复,直接封号

      Rank: 1

      积分
      74
      6#
      发表于 5 天前 | 只看该作者
      谢谢楼主分享资源

      0

      主题

      7927

      帖子

      3089

      积分

      当红偶像

      Rank: 4

      积分
      3089
      7#
      发表于 4 天前 | 只看该作者
      收藏了,谢谢分享好东西?。。。。。。。?!

      0

      主题

      62

      帖子

      1082

      积分

      职业歌手

      Rank: 3Rank: 3

      积分
      1082
      8#
      发表于 4 天前 | 只看该作者
      好好学习,天天向上!

      0

      主题

      62

      帖子

      1082

      积分

      职业歌手

      Rank: 3Rank: 3

      积分
      1082
      9#
      发表于 4 天前 | 只看该作者
      好好学习,天天向上

      0

      主题

      509

      帖子

      315

      积分

      乐坛新星

      Rank: 2

      积分
      315
      10#
      发表于 4 天前 | 只看该作者
      没听过。下载试听一个,谢谢分享。。。。。。。。

      0

      主题

      8

      帖子

      60

      积分

      新人会员,请认真回复,若恶意回复,直接封号

      Rank: 1

      积分
      60
      11#
      发表于 4 天前 | 只看该作者
      谢谢楼主的分享

      0

      主题

      21

      帖子

      63

      积分

      新人会员,请认真回复,若恶意回复,直接封号

      Rank: 1

      积分
      63
      12#
      发表于 4 天前 | 只看该作者
      谢谢楼主的分享

      1

      主题

      146

      帖子

      289

      积分

      乐坛新星

      Rank: 2

      积分
      289
      13#
      发表于 4 天前 | 只看该作者
      很好听呀,感谢楼主分享

      0

      主题

      211

      帖子

      367

      积分

      乐坛新星

      Rank: 2

      积分
      367

      社区QQ达人

      14#
      发表于 4 天前 | 只看该作者
      啊,
      感谢,又有新歌听了,好开心!


      0

      主题

      311

      帖子

      91

      积分

      新人会员,请认真回复,若恶意回复,直接封号

      Rank: 1

      积分
      91
      15#
      发表于 3 天前 | 只看该作者
      总算有不是消音版的了,消音的太难受了,感谢!
      您需要登录后才可以回帖 登录 | 注册

      本版积分规则

      快速回复 返回顶部 返回列表
      最精准免费平特一肖-最精准平特一肖-最快开奖报码