<th id="thxwy"><option id="thxwy"></option></th>

      <tr id="thxwy"></tr>

    1. 最近看过此主题的会员

      查看: 289|回复: 5
      打印 上一主题 下一主题

      [华语] BN原抓:晨曦光廊《60km/h》/ 整轨WAV/BD

      [复制链接]

      44

      主题

      591

      帖子

      1万

      积分

      流行教主

      Rank: 6Rank: 6

      积分
      11155

      社区QQ达人

      跳转到指定楼层
      1#
      发表于 2019-7-2 18:30:43 | 只看该作者 |只看大图 回帖奖励 |倒序浏览 |阅读模式

      注册会员,获得无损资源下载地址,享受高品质音乐。

      您需要 登录 才可以下载或查看,没有帐号?注册

      x


      晨曦光廊介绍(摘自主站):      晨曦光廊(Sun Of Morning)成立於2008年,由吉他手昶煬,貝斯手阿吉以及鼓手許花三個不同喜愛曲風的男孩組成。
                     一開始的初衷只是想玩出不同於流俗音樂的曲風,於是嘗試了許多不一樣的編曲方式。
              無論是捨棄主唱的作法,亦或是金屬曲風的鼓點搭配著日式後搖的吉他編曲
              在2009年發行了第一張手工同名EP【晨曦光廊】。

              之後於2011年加入了二胡手小曄以及音效師小衛
              運用中西樂器合併的方式,並且以台灣88水災的社會議題為背景
              發行了第一張專輯【因為你是我們的驕傲】。

              2012年因為二胡手以及音效師各自有了婚姻生活而離開了樂團
              再度回到三人團的晨曦光廊,嘗試著運用音源取樣以及管弦樂編制當做背景音樂
              且堅持每張CD都是從錄音、包裝、設計、繪製全手工製作
              於2012大港開唱(Mega Port)獨立發行了【光合作用-大港Mega Port限定手工EP】
              並創下連續兩年大港開唱CD販售最快銷售紀錄

              同年9月貝斯手阿吉因為有自己的人生規畫而離開了樂團,加入了新的貝斯手小鬼
              至今仍努力持續創作中,並在2013年2月發行最新音樂作品【60km/h】。
              且入圍網路音樂頻道StreetVoice以及Indievox連續兩周熱門排行榜

              晨曦光廊並沒有固定的音樂曲風,或許是因為沒有歌詞以及主唱的原因
              讓許多人覺得晨曦光廊便是後搖曲風
              其實晨曦光廊一直很敢在編曲上做很大的挑戰及變化
              忠於對台灣這塊土地的愛以及方言,希望能將音樂帶給大家的不只有聽到的聲音
              更能夠有看到且帶來感動的【畫面】。


      ************************************骚气的分割线**************************************************
      曲目:
      01  Cheater
      02  知义里
      03  光合作用
      04  风中的人
      05  60km/h
      ************************************骚气的分割线**************************************************

      Exact Audio Copy V1.2 from 12. August 2016


      EAC 抓取日志文件从2. 七月 2019, 17:16


      晨曦光廊 / 60km/h


      使用驱动器  :PLDS    DVDROM DH16D6SH   Adapter: 1  ID: 0


      读取模式      : 可靠Secure
      使用精确流     : 是
      清空音频缓存    : 是
      使用 C2 指示器 : 否


      读取偏移校正:               : 6
      读取 Lead-In 和 Lead-Out : 否
      用静音填充抓取中丢失偏移的采样       : 是
      去除首尾静音块               : 否
      在CRC 计算中使用了空样本       : 是
      已用接口                  : Win NT 及 2000 本地 Win32 接口


      所用输出模式: : 内部 WAV 函数
      样本格式    : 44.100 Hz; 16 Bit; 立体声


      已抓取 CD 的 TOC


           音轨 |    起始    |    长度    |  起始扇区  |  结束扇区  
          --------------------------------------------
            1 |  0:00.00 |  7:17.41 |      0 |  32815
            2 |  7:17.41 |  9:11.37 |  32816 |  74177
            3 | 16:29.03 |  9:43.74 |  74178 | 117976
            4 | 26:13.02 | 14:31.74 | 117977 | 183375
            5 | 40:45.01 |  7:43.46 | 183376 | 218146


      范围状态及错误


      已选择范围


           文件名 E:\自购CD\晨曦光廊 - 60kmh\晨曦光廊 - 60km,h.wav


           峰值电平 100.0 %
           抓取速度 2.9 X
           范围质量 100.0 %
           复制 CRC 41BACE56
           复制成功


      没有错误发生

      AccurateRip 摘要

      音轨  1  在数据库中不存在
      音轨  2  在数据库中不存在
      音轨  3  在数据库中不存在
      音轨  4  在数据库中不存在
      音轨  5  在数据库中不存在

      没有任何音轨在 AccurateRip 数据库中有记录


      状态报告结尾


      ---- CUETools DB Plugin V2.1.6


      [CTDB TOCID: BPTZsBq95iPmr0Z307h3c1O8gpE-] database access error: 无法解析此远程名称: 'db.cuetools.net'


      ==== 记录校验日志 68FC9181EB9B367698770DEEDF1AE8A7DF1D1519720DF90A99B21DA1F4550975 ====
      ************************************骚气的分割线**************************************************
      游客,如果您要查看本帖隐藏内容请回复





      评分

      参与人数 1CD +240 收起 理由
      最终之战 + 240 感谢分享资源,CD包因你而精彩.

      查看全部评分





      原抓:鹿先森乐队《所有的酒,都不如你》2016/WAV/BD
      Dr原抓:王勇《Free Touching》2002/WAV/度盘

      194

      主题

      1340

      帖子

      5万

      积分

      天王巨星

      Rank: 7Rank: 7Rank: 7

      积分
      56470

      社区QQ达人灌水勋章

      2#
      发表于 2019-7-2 19:01:21 | 只看该作者
      中年大叔就爱后摇,楼主辛苦了

      169

      主题

      571

      帖子

      4万

      积分

      天王巨星

      Rank: 7Rank: 7Rank: 7

      积分
      42497

      灌水勋章

      3#
      发表于 2019-7-9 14:59:27 | 只看该作者
      下载这张专辑的时候,正在听白纸。

      62

      主题

      408

      帖子

      3万

      积分

      天王巨星

      Rank: 7Rank: 7Rank: 7

      积分
      39503

      社区QQ达人

      4#
      发表于 2019-7-10 17:55:38 | 只看该作者
      收张WAV版本,谢谢楼主!
       成长值: 12990

      1

      主题

      308

      帖子

      1022

      积分

      VIP6

      Rank: 9Rank: 9Rank: 9

      积分
      1022
      5#
      发表于 2019-8-5 19:07:22 | 只看该作者
      喜欢大热门的《60km/h》、《光合作用》,话说晨曦光廊现场还是挺燥的,估计有一部分歌迷会以为他们玩的是“小清新”~
       成长值: 140

      0

      主题

      16

      帖子

      4986

      积分

      VIP1

      Rank: 4

      积分
      4986
      6#
      发表于 前天 01:15 | 只看该作者
      晨曦光廊要支持的
      您需要登录后才可以回帖 登录 | 注册

      本版积分规则

      快速回复 返回顶部 返回列表
      最精准免费平特一肖-最精准平特一肖-最快开奖报码