<th id="thxwy"><option id="thxwy"></option></th>

      <tr id="thxwy"></tr>

    1. 最近看过此主题的会员

      查看: 268|回复: 5
      打印 上一主题 下一主题

      [华语] BN原抓:左小祖咒《2010-2013北京现场》/WAV整轨/BD

      [复制链接]

      44

      主题

      591

      帖子

      1万

      积分

      流行教主

      Rank: 6Rank: 6

      积分
      11155

      社区QQ达人

      跳转到指定楼层
      1#
      发表于 2019-7-3 22:04:14 | 只看该作者 |只看大图 回帖奖励 |倒序浏览 |阅读模式

      注册会员,获得无损资源下载地址,享受高品质音乐。

      您需要 登录 才可以下载或查看,没有帐号?注册

      x
      本帖最后由 bnjhxyr 于 2019-7-3 22:31 编辑


      《左小祖咒2010-2013北京现场》于2015年3月16日正式发行。该专辑首次采用高规格画册装帧,秒杀一切的视觉艺术与音乐本身相结合,此方式在左小祖咒以往作品中极为罕见。音乐人,艺术家,摇滚师风采将被一网打尽。



      专辑收录作品首首经典,全部重新混音打造,享受最完美现场的同时想必视觉冲击力也会让你发狂到淋漓尽致,左爷这次就是要给足所有你想要的。

      专辑以画册的形式限量出品2015张,每张都附有独立编码,毋庸置疑,这将是一次摇滚与艺术相互融汇的新标志,新高度。
      PS:包内图片手机随意照的^-^  抓了有半年了一直懒得上传,哈哈
      曲目
      01.小莉
      02.我不能悲伤地坐在你身旁
      03.爱情的枪
      04.乌兰巴托的夜
      05.当我离开你的时候
      06.忧伤的老板
      07.平安大道的延伸
      08.像孩子似的倾听
      09.关河令
      10.可忘不可忘
      11.咖啡时光
      12.苦鬼
      ***************我是分割线**************
      Exact Audio Copy V1.2 from 12. August 2016

      EAC 抓取日志文件从21. 十一月 2018, 12:21

      左小祖咒 / 2010-2013北京现场

      使用驱动器  :PLDS    DVDROM DH16D6SH   Adapter: 1  ID: 0

      读取模式      : 可靠Secure
      使用精确流     : 是
      清空音频缓存    : 是
      使用 C2 指示器 : 否

      读取偏移校正:               : 6
      读取 Lead-In 和 Lead-Out : 否
      用静音填充抓取中丢失偏移的采样       : 是
      去除首尾静音块               : 否
      在CRC 计算中使用了空样本       : 是
      已用接口                  : Win NT 及 2000 本地 Win32 接口

      所用输出模式: : 内部 WAV 函数
      样本格式    : 44.100 Hz; 16 Bit; 立体声

      已抓取 CD 的 TOC

           音轨 |    起始    |    长度    |  起始扇区  |  结束扇区  
          --------------------------------------------
            1 |  0:00.00 |  5:46.58 |      0 |  26007
            2 |  5:46.58 |  6:33.12 |  26008 |  55494
            3 | 12:19.70 |  6:16.59 |  55495 |  83753
            4 | 18:36.54 |  4:41.20 |  83754 | 104848
            5 | 23:17.74 |  5:34.19 | 104849 | 129917
            6 | 28:52.18 |  5:44.55 | 129918 | 155772
            7 | 34:36.73 |  6:09.68 | 155773 | 183515
            8 | 40:46.66 |  5:59.53 | 183516 | 210493
            9 | 46:46.44 |  4:51.23 | 210494 | 232341
           10 | 51:37.67 |  5:30.01 | 232342 | 257092
           11 | 57:07.68 |  4:02.68 | 257093 | 275310
           12 | 61:10.61 |  6:36.01 | 275311 | 305011

      范围状态及错误

      已选择范围

           文件名 E:\自购CD\左小祖咒 - 2010-2013北京现场\左小祖咒 - 2010-2013北京现场.wav

           峰值电平 100.0 %
           抓取速度 3.3 X
           范围质量 100.0 %
           复制 CRC 543185DF
           复制成功

      没有错误发生

      AccurateRip 摘要
      音轨  1  在数据库中不存在
      音轨  2  在数据库中不存在
      音轨  3  在数据库中不存在
      音轨  4  在数据库中不存在
      音轨  5  在数据库中不存在
      音轨  6  在数据库中不存在
      音轨  7  在数据库中不存在
      音轨  8  在数据库中不存在
      音轨  9  在数据库中不存在
      音轨 10  在数据库中不存在
      音轨 11  在数据库中不存在
      音轨 12  在数据库中不存在
      没有任何音轨在 AccurateRip 数据库中有记录

      状态报告结尾

      ---- CUETools DB Plugin V2.1.6

      [CTDB TOCID: 5vubhG0qjYcdNdtYFkVZ1yNLk8M-] found
      Submit result: 5vubhG0qjYcdNdtYFkVZ1yNLk8M- has been confirmed
      Track | CTDB Status
        1   | (3/3) Accurately ripped
        2   | (3/3) Accurately ripped
        3   | (3/3) Accurately ripped
        4   | (3/3) Accurately ripped
        5   | (3/3) Accurately ripped
        6   | (3/3) Accurately ripped
        7   | (3/3) Accurately ripped
        8   | (3/3) Accurately ripped
        9   | (3/3) Accurately ripped
      10   | (3/3) Accurately ripped
      11   | (3/3) Accurately ripped
      12   | (3/3) Accurately ripped


      ==== 记录校验日志 80CA9AEADBE8471981F05B41996D4AA08DB65E89F697EE678010533F8639D880 ====

      ***************我是分割线**************
      游客,如果您要查看本帖隐藏内容请回复

      评分

      参与人数 1CD +240 收起 理由
      最终之战 + 240 感谢分享资源,CD包因你而精彩.

      查看全部评分





      Dr原抓:王勇《Free Touching》2002/WAV/度盘
      BN原抓:左小祖咒《庙会之旅》(2004再版)/WAV整轨/BD

      61

      主题

      99

      帖子

      1万

      积分

      流行教主

      Rank: 6Rank: 6

      积分
      18246
      2#
      发表于 2019-7-3 22:13:39 | 只看该作者
      收左小的就要快,不然十分钟就被河蟹了

      194

      主题

      1340

      帖子

      5万

      积分

      天王巨星

      Rank: 7Rank: 7Rank: 7

      积分
      56530

      社区QQ达人灌水勋章

      3#
      发表于 2019-7-3 23:53:03 | 只看该作者
      很棒的资源,楼主辛苦了

      62

      主题

      408

      帖子

      3万

      积分

      天王巨星

      Rank: 7Rank: 7Rank: 7

      积分
      39503

      社区QQ达人

      4#
      发表于 2019-7-9 12:08:58 | 只看该作者
      看看是否真的被河蟹了

      0

      主题

      59

      帖子

      2万

      积分

      流行教主

      Rank: 6Rank: 6

      积分
      29893

      社区QQ达人

      5#
      发表于 2019-7-19 10:43:00 | 只看该作者
      感谢分享资源?。?!
       成长值: 36315

      3

      主题

      167

      帖子

      1130

      积分

      VIP1

      Rank: 4

      积分
      1130

      社区QQ达人

      6#
      发表于 11 小时前 | 只看该作者
      感谢楼主分享宝贵资源
      您需要登录后才可以回帖 登录 | 注册

      本版积分规则

      快速回复 返回顶部 返回列表
      最精准免费平特一肖-最精准平特一肖-最快开奖报码