<th id="thxwy"><option id="thxwy"></option></th>

      <tr id="thxwy"></tr>

    1. 最近看过此主题的会员

      查看: 258|回复: 2
      打印 上一主题 下一主题

      [华语] BN原抓:左小祖咒《庙会之旅》(2004再版)/WAV整轨/BD

      [复制链接]

      44

      主题

      591

      帖子

      1万

      积分

      流行教主

      Rank: 6Rank: 6

      积分
      11155

      社区QQ达人

      跳转到指定楼层
      1#
      发表于 2019-7-3 22:21:54 | 只看该作者 |只看大图 回帖奖励 |倒序浏览 |阅读模式

      注册会员,获得无损资源下载地址,享受高品质音乐。

      您需要 登录 才可以下载或查看,没有帐号?注册

      x
      本帖最后由 bnjhxyr 于 2019-7-3 22:32 编辑

      专辑简介
              那是在进入21世纪前的1999年底,一张名为《庙会之旅》的专辑在国内限时限省限量发行。当时它的创作发表者为“NO”乐队。作为一支‘年轻’的老牌乐队,NO给那时刚刚破土萌芽的中国地下音乐打了一剂及时的强心针。在第二张专辑里,他们延承了首张专辑《走失的主人》的火力,继续在中国摇滚的荒野里开拓着一片无中生有的疆场。
      1999年也成为中国摇滚乐分化最露骨的一年,黑豹、零点、郑钧以各自的动机和资本逐渐找到了他们最舒服的位置,而NO、苍蝇、盘古和舌头也从模糊不清的小样堆里一跃而起,发出了一个时代即将终结时该有的狂啸。
      听到《庙会之旅》的每个人都大为震惊,它甚至让一大部分非常喜欢NO的音乐的人无从适应——NO变招的速度过快,他们过于乐观地处理了大众复杂的审美接收器。尽管其中的一首《冤枉》被国内多家媒体评为年度最佳歌曲,2001年底再度变形的《左小祖咒在地安门》则让热爱他的乐民再次分流。有人说他的狂吼已开始变调和变质,也有人说他的一脸笑容里沉淀的是更浓郁的老谋深算??垂齆O和左小祖咒现场的人,一定有着难忘的记忆。我现在仍清晰记得2000年底的圣诞夜,在沈阳的一个小酒吧里,喝得半醉的左小祖咒晃到台上,抄起一把木吉他,缓缓地弹起了《苦鬼》。那不是唱,而是哼;那不是高歌,而是低吟。那是一个与大场面上神采飞扬的左小祖咒形成某种呼应的左小祖咒,晚上10点钟的左小祖咒与凌晨1点半的左小祖咒是不同的两种真相,但都一致的动人,一致的专心致志。
      今年6月底,《庙会之旅》突然重出江湖,但主人公已由NO换成了左小祖咒。
      这一张与上一张都有什么不同呢?虽然歌曲和封面是1999年的,但演奏和演唱大部分是2003年的。在《庙会之旅》重录期间,据左小祖咒透露,他觉得1999年版的演奏是有不少问题的,演唱也“非常难听”。我很想知道的是,左小祖咒是以怎样的一副心态来录制这个新版本的——他既要捍卫1999的立场,也得踏上2004的列车。而更重要的是,他还要保证左小祖咒于种种挣扎中发声的流畅。
      熟悉左小祖咒气味脉搏的人一定也了解,这个讲故事的高手擅长让时空失控。在左小祖咒古怪而欢快的歌唱里,隐藏着一台鲜为人知的发动机。它的位置是保密的,它是制造左小祖咒每首歌曲层层迷团的核心。对于乐迷来说,听左小祖咒的歌最后往往会变成一项解迷工作:如果不看歌词,你永远不知道这个人在唱什么;而看到歌词之后,你会觉得这不可能是歌词。它也许是另类小说,也许是狂草诗,也许是瘦削的寓言,而他的歌唱会撕烂各种体裁的捆绑,织成一种新的纤维。在这一点上,国内音乐人未曾出现过第二者(甚至遗憾的连一个模仿者也没有)。
      一趟是1999年NO引领的庙会之旅,另一趟是2004年左小祖咒带团的庙会之旅;同样的路线,同样的景观,却是不同的心情和不同的寻求。让左小祖咒回到1999的车厢是不现实的。一个朋友说,听过新版《庙》后有种感受:旧版《庙》是《走失的主人》精神的延续,新版《庙》是与《地安门》肉体的融合。左小祖咒对这个论断肯定是不会太满意,因为对于一个合格的羞辱主义者来说,无意义的生活可以是错位的,但美好的经验是不能向失意和无知缴械投降的。



      曲目:
      01 皮条客
      02 羞辱主义
      03 苦鬼
      04 冤枉
      05 祭日之星
      06果皮箱
      07 家父
      08 除夕
      09莫非

      ***************调皮的分割线*********************

      Exact Audio Copy V1.2 from 12. August 2016
      EAC 抓取日志文件从4. 四月 2019, 18:18
      左小祖咒 / 庙会之旅
      使用驱动器  :PLDS    DVDROM DH16D6SH   Adapter: 1  ID: 0
      读取模式      : 可靠Secure
      使用精确流     : 是
      清空音频缓存    : 是
      使用 C2 指示器 : 否
      读取偏移校正:               : 6
      读取 Lead-In 和 Lead-Out : 否
      用静音填充抓取中丢失偏移的采样       : 是
      去除首尾静音块               : 否
      在CRC 计算中使用了空样本       : 是
      已用接口                  : Win NT 及 2000 本地 Win32 接口
      所用输出模式: : 内部 WAV 函数
      样本格式    : 44.100 Hz; 16 Bit; 立体声
      已抓取 CD 的 TOC
           音轨 |    起始    |    长度    |  起始扇区  |  结束扇区  
          --------------------------------------------
            1 |  0:00.00 |  3:47.04 |      0 |  17028
            2 |  3:47.04 |  5:34.41 |  17029 |  42119
            3 |  9:21.45 |  4:42.47 |  42120 |  63316
            4 | 14:04.17 |  3:46.12 |  63317 |  80278
            5 | 17:50.29 |  3:25.37 |  80279 |  95690
            6 | 21:15.66 |  3:10.47 |  95691 | 109987
            7 | 24:26.38 |  6:29.31 | 109988 | 139193
            8 | 30:55.69 |  5:38.65 | 139194 | 164608
            9 | 36:34.59 |  5:05.35 | 164609 | 187518
      范围状态及错误
      已选择范围
           文件名 E:\左小祖咒 - 庙会之旅\左小祖咒 - 庙会之旅.wav
           峰值电平 97.2 %
           抓取速度 2.8 X
           范围质量 100.0 %
           复制 CRC 318479A5
           复制成功
      没有错误发生
      AccurateRip 摘要
      音轨  1  精确地校准抓取  1)  [63834453]  (AR v2)
      音轨  2  精确地校准抓取  1)  [1B867728]  (AR v2)
      音轨  3  精确地校准抓取  1)  [D93DAC6E]  (AR v2)
      音轨  4  精确地校准抓取  1)  [2C94CAAD]  (AR v2)
      音轨  5  精确地校准抓取  1)  [EBE581DF]  (AR v2)
      音轨  6  精确地校准抓取  1)  [5B9E14D4]  (AR v2)
      音轨  7  精确地校准抓取  1)  [51FD8139]  (AR v2)
      音轨  8  精确地校准抓取  1)  [1B155111]  (AR v2)
      音轨  9  精确地校准抓取  1)  [CBF0C997]  (AR v2)
      所有音轨精确校准抓取
      状态报告结尾
      ---- CUETools DB Plugin V2.1.6
      [CTDB TOCID: eVTSdAC1DYMNxysZZck3e.UgVes-] found
      Submit result: eVTSdAC1DYMNxysZZck3e.UgVes- has been confirmed
      Track | CTDB Status
        1   | (4/4) Accurately ripped
        2   | (4/4) Accurately ripped
        3   | (4/4) Accurately ripped
        4   | (4/4) Accurately ripped
        5   | (4/4) Accurately ripped
        6   | (4/4) Accurately ripped
        7   | (4/4) Accurately ripped
        8   | (4/4) Accurately ripped
        9   | (4/4) Accurately ripped
      ==== 记录校验日志 2EE22443E0FF08251604C337DD78277DF138ED00F5CCE7D820D2A4B248AF9E3F ====
      ***************调皮的分割线*********************
      游客,如果您要查看本帖隐藏内容请回复







      评分

      参与人数 1CD +240 收起 理由
      最终之战 + 240 感谢分享资源,CD包因你而精彩.

      查看全部评分





      BN原抓:左小祖咒《2010-2013北京现场》/WAV整轨/BD
      原抓:张学友《黑与白 新歌+精选 1985-2004 BLACK&amp;WHITE》2004/W...

      194

      主题

      1340

      帖子

      5万

      积分

      天王巨星

      Rank: 7Rank: 7Rank: 7

      积分
      56530

      社区QQ达人灌水勋章

      2#
      发表于 2019-7-4 00:00:35 | 只看该作者
      楼主的资源都是杠杠的,多谢分享

      194

      主题

      1340

      帖子

      5万

      积分

      天王巨星

      Rank: 7Rank: 7Rank: 7

      积分
      56530

      社区QQ达人灌水勋章

      3#
      发表于 2019-7-4 00:00:59 | 只看该作者
      楼主的资源都是杠杠的,多谢分享
      您需要登录后才可以回帖 登录 | 注册

      本版积分规则

      快速回复 返回顶部 返回列表
      最精准免费平特一肖-最精准平特一肖-最快开奖报码