<th id="thxwy"><option id="thxwy"></option></th>

      <tr id="thxwy"></tr>

    1. 最近看过此主题的会员

      查看: 120|回复: 6
      打印 上一主题 下一主题

      [欧美摇滚] 硬?。篐ollywood Vampires《Rise》2019/Hi-Res/FLAC/BD/1.18G

      [复制链接]
       成长值: 33150

      1万

      主题

      2万

      帖子

      76万

      积分

      音乐掌门人

      Rank: 20Rank: 20Rank: 20Rank: 20Rank: 20

      积分
      764703

      名人勋章社区QQ达人分享勋章精华帖达人灌水勋章

      跳转到指定楼层
      1#
      发表于 2019-7-4 12:31:40 | 只看该作者 |只看大图 回帖奖励 |倒序浏览 |阅读模式

      注册会员,获得无损资源下载地址,享受高品质音乐。

      您需要 登录 才可以下载或查看,没有帐号?注册

      x


      Hollywood Vampires - Rise
      xФормат записи/Источник записи: [TR24][OF]
      Наличие водяных знаков: Нет
      Год издания: 2019
      Жанр: Hard Rock
      Издатель (лейбл): earMUSIC
      Продолжительность: 00:56:45
      Наличие сканов в содержимом раздачи: Только обложка альбома
      Контейнер: FLAC (*.flac)
      Тип рипа: tracks
      Разрядность: 24/96
      Формат: PCM
      Количество каналов: 2.0

      Треклист
      01. I Want My Now (07:13)
      02. Good People Are Hard to Find (01:03)
      03. Who's Laughing Now (04:10)
      04. How the Glass Fell (00:30)
      05. The Boogieman Surprise (03:38)
      06. Welcome to Bushwackers (04:13)
      07. The Wrong Bandage (00:29)
      08. You Can't Put Your Arms Around a Memory (03:51)
      09. Git from Round Me (04:23)
      10. Heroes (04:09)
      11. A Pitiful Beauty (01:28)
      12. New Threat (03:33)
      13. Mr. Spider (06:03)
      14. We Gotta Rise (03:34)
      15. People Who Died (04:57)
      16. Congratulations (03:31)

      Alice Cooper, vocals
      Joe Perry, guitar
      Johnny Depp, guitar
      ==========================
      百度下载(阿战音乐汇总)
      游客,如果您要查看本帖隐藏内容请回复




      朋克:Green Day《International Superhits》2019/Hi-Res/FLAC/BD/1.32G
      瑞典单人氛围黑Lustre《12CD》2008-2019/FLAC/BD

      本人发布的资源,有密码的话都是:www.m-instyle.cn
      关于链接失效的说明(度盘好友分享的说明)
      http://www.m-instyle.cn/thread-117499-1-1.html     
      紧急通告:115,快传等网盘取消了分享功能礼包码链接全部失效
      http://www.m-instyle.cn/thread-122759-1-1.html
       成长值: 33150

      1万

      主题

      2万

      帖子

      76万

      积分

      音乐掌门人

      Rank: 20Rank: 20Rank: 20Rank: 20Rank: 20

      积分
      764703

      名人勋章社区QQ达人分享勋章精华帖达人灌水勋章

      2#
      发表于 2019-7-4 12:32:13 | 只看该作者
      foobar2000 1.4 / Dynamic Range Meter 1.1.1
      log date: 2019-06-21 05:30:59

      --------------------------------------------------------------------------------
      Analyzed: Hollywood Vampires / Rise
      --------------------------------------------------------------------------------

      DR         Peak         RMS     Duration Track
      --------------------------------------------------------------------------------
      DR6       -0.60 dB    -7.35 dB      7:13 01-I Want My Now
      DR11      -1.73 dB   -16.38 dB      1:03 02-Good People Are Hard to Find
      DR5        0.00 dB    -6.15 dB      4:10 03-Who's Laughing Now
      DR15     -13.05 dB   -32.06 dB      0:30 04-How the Glass Fell
      DR5       -0.30 dB    -6.34 dB      3:38 05-The Boogieman Surprise
      DR6        0.00 dB    -7.15 dB      4:13 06-Welcome to Bushwackers
      DR9       -1.78 dB   -16.34 dB      0:29 07-The Wrong Bandage
      DR5       -0.60 dB    -6.52 dB      3:51 08-You Can't Put Your Arms Around a Memory
      DR4        0.00 dB    -5.39 dB      4:23 09-Git from Round Me
      DR5        0.00 dB    -5.78 dB      4:09 10-Heroes
      DR9       -1.93 dB   -15.81 dB      1:28 11-A Pitiful Beauty
      DR6       -0.30 dB    -7.40 dB      3:33 12-New Threat
      DR5       -0.30 dB    -7.43 dB      6:03 13-Mr. Spider
      DR6        0.00 dB    -7.54 dB      3:34 14-We Gotta Rise
      DR5       -0.60 dB    -6.12 dB      4:57 15-People Who Died
      DR6       -3.17 dB    -9.97 dB      3:31 16-Congratulations
      --------------------------------------------------------------------------------

      Number of tracks:  16
      Official DR value: DR7
      Samplerate:        96000 Hz
      Channels:          2
      Bits per sample:   24
      Bitrate:           2879 kbps
      Codec:             FLAC
      ================================================================================



      本人发布的资源,有密码的话都是:www.m-instyle.cn
      关于链接失效的说明(度盘好友分享的说明)
      http://www.m-instyle.cn/thread-117499-1-1.html     
      紧急通告:115,快传等网盘取消了分享功能礼包码链接全部失效
      http://www.m-instyle.cn/thread-122759-1-1.html
      integral

      3

      主题

      545

      帖子

      942

      积分

      职业歌手

      Rank: 3Rank: 3

      积分
      942

      社区QQ达人

      3#
      发表于 2019-7-5 11:04:22 | 只看该作者
      谢谢战哥 这可是好东西

      2

      主题

      491

      帖子

      1111

      积分

      职业歌手

      Rank: 3Rank: 3

      积分
      1111
      4#
      发表于 7 天前 | 只看该作者
      谢谢楼主 分享的都是极品

      0

      主题

      119

      帖子

      248

      积分

      乐坛新星

      Rank: 2

      积分
      248
      5#
      发表于 4 天前 | 只看该作者
      感谢楼主分享啊,最爱

      1

      主题

      153

      帖子

      555

      积分

      职业歌手

      Rank: 3Rank: 3

      积分
      555
      6#
      发表于 4 天前 | 只看该作者
      支持掌门人,谢谢分享

      0

      主题

      1184

      帖子

      1072

      积分

      职业歌手

      Rank: 3Rank: 3

      积分
      1072

      社区QQ达人

      QQ
      7#
      发表于 昨天 22:41 | 只看该作者
      德普去玩这个啦?
      您需要登录后才可以回帖 登录 | 注册

      本版积分规则

      快速回复 返回顶部 返回列表
      最精准免费平特一肖-最精准平特一肖-最快开奖报码