<th id="thxwy"><option id="thxwy"></option></th>

      <tr id="thxwy"></tr>

    1. 最近看过此主题的会员

      查看: 680|回复: 2
      打印 上一主题 下一主题

      [华语] 原抓:张学友《黑与白 新歌+精选 1985-2004 BLACK&WHITE》2004/W...

      [复制链接]

      13

      主题

      88

      帖子

      3278

      积分

      当红偶像

      Rank: 4

      积分
      3278
      跳转到指定楼层
      1#
      发表于 2019-7-4 20:24:18 | 只看该作者 |只看大图 回帖奖励 |倒序浏览 |阅读模式

      注册会员,获得无损资源下载地址,享受高品质音乐。

      您需要 登录 才可以下载或查看,没有帐号?注册

      x
      本帖最后由 wuqiang1011 于 2019-7-13 00:47 编辑

      Exact Audio Copy V1.3 from 2. September 2016
      EAC 抓取日志文件从4. 七月 2019, 18:41
      张学友 / BLACK&WHITE(新歌+精选1985-2004)
      使用驱动器  :TEAC    DW-224E-A   Adapter: 1  ID: 0
      读取模式      : 可靠Secure
      使用精确流     : 是
      清空音频缓存    : 是
      使用 C2 指示器 : 是
      读取偏移校正:               : 102
      读取 Lead-In 和 Lead-Out : 否
      用静音填充抓取中丢失偏移的采样       : 是
      去除首尾静音块               : 否
      在CRC 计算中使用了空样本       : 是
      已用接口                  : Win NT 及 2000 本地 Win32 接口
      所用输出模式: : 内部 WAV 函数
      样本格式    : 44.100 Hz; 16 Bit; 立体声

      已抓取 CD 的 TOC
           音轨 |    起始    |    长度    |  起始扇区  |  结束扇区  
          --------------------------------------------
            1 |  0:00.00 |  3:30.39 |      0 |  15788
            2 |  3:30.39 |  4:31.36 |  15789 |  36149
            3 |  8:02.00 |  4:35.42 |  36150 |  56816
            4 | 12:37.42 |  3:57.29 |  56817 |  74620
            5 | 16:34.71 |  4:16.54 |  74621 |  93874
            6 | 20:51.50 |  4:07.08 |  93875 | 112407
            7 | 24:58.58 |  3:31.62 | 112408 | 128294
            8 | 28:30.45 |  3:36.29 | 128295 | 144523
            9 | 32:06.74 |  4:51.08 | 144524 | 166356
           10 | 36:58.07 |  4:22.13 | 166357 | 186019
           11 | 41:20.20 |  3:54.57 | 186020 | 203626
           12 | 45:15.02 |  4:13.18 | 203627 | 222619
           13 | 49:28.20 |  4:49.05 | 222620 | 244299

      范围状态及错误
      已选择范围
           文件名 F:\HIFI音乐\张学友BLACK&WHITE\Disc1\张学友 - BLACK&WHITE(新歌+精选1985-2004).wav
           峰值电平 100.0 %
           抓取速度 1.8 X
           范围质量 100.0 %
           复制 CRC 67AE0D9E
           复制成功
      没有错误发生
      ------------------------------------------------------------------------------------------------------------------------------------------------------------------
      专辑简介:
       《张学友:黑与白》是学友继两年前2002年《他在那里》后,发行的*新国语专辑,里面不但收录了2003年当时歌迷询问已久,一直引颈期盼的两首超红人气韩剧《ALL IN》的片头曲《如果不爱你》跟片尾曲《忘了哭》外,还收了今年3首全新情歌《黑白画映》、《我不明白》、《SORRY》。
      除了这5首新歌外,还有21首全部由学友本人亲自从台湾发行的第一张国语专辑《情无四归》中挑选的《月半湾》一直到2002年的《他字哪里》的《咖啡》,每一首歌都是学友自己千挑万选出来的。除了是自己*钟爱外,也几乎很多首都不是当年的主打歌,但是好听的程度却一点都不逊于主打,甚至都超过大家耳熟能详的经典歌曲。例如曲目中的“离人”、“苦恋”和“*后一封信”等等,这张专辑的附标称为“The Second Best Collection”,就是代表了这张精选集所收录的歌曲并不像往常精选集只收录主打歌的方式,而是挑出了所谓的第二主打、甚至隐藏在专辑中无法脱颖而出的好歌,也许在当时这些歌曲无法成为专辑主打,但学友表示,在经过一段时间之后,这些歌曲依旧耐听,所以这次把歌曲精选集结,让所有歌迷再重新听听看,也许会有不一样的感觉!


      -------------------------------------------------------------------------------------------------------------------------------------------------
      专辑曲目:
      Disc1
      01 黑白画映
      02 我不明白
      03 Sony
      04 忘了哭
      05 如果不爱你
      06 咖啡
      07 我真的受伤了
      08 如果这都不算爱
      09 她来听我的演唱会
      10 二分之一的幸福
      11 女人香
      12 深海
      13 离人
      Disc2
      01 失眠夜
      02 慢慢
      03 我不愿意
      04 无所谓
      05 人在雨中
      06 情愿
      07 别问
      08 心碎了无痕
      09 谁想轻轻偷走我的吻
      10 最后一封信
      11 苦恋
      12 一路上有你
      13 月半弯
      游客,如果您要查看本帖隐藏内容请回复


      评分

      参与人数 1CD +240 收起 理由
      最终之战 + 240 感谢分享资源,CD包因你而精彩.

      查看全部评分





      BN原抓:左小祖咒《庙会之旅》(2004再版)/WAV整轨/BD
      BN原抓:晨曦光廊《Try to talk with ourselves》/ 整轨WAV/BD

      194

      主题

      1331

      帖子

      5万

      积分

      天王巨星

      Rank: 7Rank: 7Rank: 7

      积分
      54890

      社区QQ达人灌水勋章

      2#
      发表于 2019-7-4 21:56:38 | 只看该作者
      我来第一个回复,歌神的歌,收了

      111

      主题

      1681

      帖子

      4万

      积分

      天王巨星

      Rank: 7Rank: 7Rank: 7

      积分
      49396

      社区QQ达人

      3#
      发表于 2019-7-9 15:19:45 | 只看该作者
      谢谢楼主呵呵!拿下喜欢的几首
      您需要登录后才可以回帖 登录 | 注册

      本版积分规则

      快速回复 返回顶部 返回列表
      最精准免费平特一肖-最精准平特一肖-最快开奖报码