<th id="thxwy"><option id="thxwy"></option></th>

      <tr id="thxwy"></tr>

    1. 最近看过此主题的会员

      查看: 248|回复: 4
      打印 上一主题 下一主题

      [华语] BN原抓:晨曦光廊《Try to talk with ourselves》/ 整轨WAV/BD

      [复制链接]

      37

      主题

      557

      帖子

      9662

      积分

      人气天王

      Rank: 5Rank: 5

      积分
      9662

      社区QQ达人

      跳转到指定楼层
      1#
      发表于 2019-7-4 20:55:53 | 只看该作者 |只看大图 回帖奖励 |倒序浏览 |阅读模式

      注册会员,获得无损资源下载地址,享受高品质音乐。

      您需要 登录 才可以下载或查看,没有帐号?注册

      x
      本帖最后由 bnjhxyr 于 2019-7-4 20:57 编辑






         

      这张碟是晨曦光廊Sun Of Morning『十週年』專場演唱會『誠實面對Try to talk with ourselves』的CD,比
      2018的《贰零壹捌》多了一首歌,各大音乐APP找不到此碟,喜欢的快来收藏吧!




      曲目:

      01 白纸(UNPLUGGED)

      02 方尼梦

      03 河的孩子

      04 白纸(BAND)


      *********************分隔线*********************************

      Exact Audio Copy V1.2 from 12. August 2016


      EAC 抓取日志文件从4. 七月 2019, 18:32


      晨曦光廊 / 誠實面對Try to talk with ourselves


      使用驱动器  :PLDS    DVDROM DH16D6SH   Adapter: 1  ID: 0


      读取模式      : 可靠Secure
      使用精确流     : 是
      清空音频缓存    : 是
      使用 C2 指示器 : 否


      读取偏移校正:               : 6
      读取 Lead-In 和 Lead-Out : 否
      用静音填充抓取中丢失偏移的采样       : 是
      去除首尾静音块               : 否
      在CRC 计算中使用了空样本       : 是
      已用接口                  : Win NT 及 2000 本地 Win32 接口


      所用输出模式: : 内部 WAV 函数
      样本格式    : 44.100 Hz; 16 Bit; 立体声

      已抓取 CD 的 TOC


           音轨 |    起始    |    长度    |  起始扇区  |  结束扇区  
          --------------------------------------------
            1 |  0:00.00 |  4:45.06 |      0 |  21380
            2 |  4:45.06 |  3:05.12 |  21381 |  35267
            3 |  7:50.18 |  2:38.00 |  35268 |  47117
            4 | 10:28.18 |  4:47.74 |  47118 |  68716

      范围状态及错误


      已选择范围


           文件名 E:\自购CD\晨曦光廊 - 誠實面對Try to talk with ourselves\晨曦光廊 - 誠實面對Try to talk with ourselves.wav


           峰值电平 100.0 %
           抓取速度 2.2 X
           范围质量 100.0 %
           复制 CRC BD6029CA
           复制成功


      没有错误发生

      AccurateRip 摘要

      音轨  1  在数据库中不存在
      音轨  2  在数据库中不存在
      音轨  3  在数据库中不存在
      音轨  4  在数据库中不存在

      没有任何音轨在 AccurateRip 数据库中有记录


      状态报告结尾


      ---- CUETools DB Plugin V2.1.6


      [CTDB TOCID: IVkEoRi8fCqaWlWevdK6foxOpGo-] disk not present in database
      Submit result: IVkEoRi8fCqaWlWevdK6foxOpGo- has been uploaded

      ==== 记录校验日志 A80F588FF29EAA50ED2EF534CBC8CFE4AEF32B9615EE3A421EDFE5523ED08900 ====
      *********************分隔线*********************************
      游客,如果您要查看本帖隐藏内容请回复










      评分

      参与人数 1CD +240 收起 理由
      最终之战 + 240 感谢分享资源,CD包因你而精彩.

      查看全部评分





      原抓:张学友《黑与白 新歌+精选 1985-2004 BLACK&amp;WHITE》2004/W...
      原抓:不一样的禅乐《楞严一笑》黄帅作品整轨WAV/BD

      194

      主题

      1330

      帖子

      5万

      积分

      天王巨星

      Rank: 7Rank: 7Rank: 7

      积分
      53617

      社区QQ达人灌水勋章

      2#
      发表于 2019-7-4 21:51:30 | 只看该作者
      赶紧收了,多谢

      169

      主题

      554

      帖子

      4万

      积分

      天王巨星

      Rank: 7Rank: 7Rank: 7

      积分
      42154

      灌水勋章

      3#
      发表于 2019-7-9 14:52:25 | 只看该作者
      在网易云听了试听才决定要下载,很好听的后摇。
       成长值: 10740

      7

      主题

      150

      帖子

      12

      积分

      VIP5

      Rank: 8Rank: 8

      积分
      12
      4#
      发表于 2019-7-10 15:58:31 | 只看该作者
      这个乐队,没咋听过呀~~~

      62

      主题

      406

      帖子

      3万

      积分

      天王巨星

      Rank: 7Rank: 7Rank: 7

      积分
      39486

      社区QQ达人

      5#
      发表于 2019-7-10 17:57:51 | 只看该作者
      听楼主的,赶紧收下。哈哈哈
      您需要登录后才可以回帖 登录 | 注册

      本版积分规则

      快速回复 返回顶部 返回列表
      最精准免费平特一肖-最精准平特一肖-最快开奖报码