<th id="thxwy"><option id="thxwy"></option></th>

      <tr id="thxwy"></tr>

    1. 查看: 306|回复: 0
      打印 上一主题 下一主题

      [华语] 原抓:不一样的禅乐《楞严一笑》黄帅作品整轨WAV/BD

      [复制链接]

      13

      主题

      87

      帖子

      3275

      积分

      当红偶像

      Rank: 4

      积分
      3275
      跳转到指定楼层
      1#
      发表于 2019-7-5 12:47:29 | 只看该作者 |只看大图 回帖奖励 |倒序浏览 |阅读模式

      注册会员,获得无损资源下载地址,享受高品质音乐。

      您需要 登录 才可以下载或查看,没有帐号?注册

      x
      本帖最后由 wuqiang1011 于 2019-7-13 00:46 编辑
      听到禅乐,佛歌之类名称,很多人会觉得头大,下意识就是南无阿弥陀佛,或者心经,或者各种经文带点音乐,本专辑完全不同,偏古风,也有很强的音乐性和HiFi性,从纯音乐欣赏角度来听相信也会喜欢的。
      本专辑我一直放车上听,和市面上11首歌曲版本不同,准确说可能还要早一点,是亲戚以前送的,不知道是不是首版,低速原抓,希望大家喜欢!
      -------------------------------------------------------------------


      关于楞严一笑:
      《楞严一笑》的歌词,相传是宋代法常法师于入寂前的清晨,依《渔父词》声律写下的,写完即就榻收足而逝。 佛曲:《楞严一笑》 [宋] 法常和尚 词 此事楞严尝露布,梅花雪月交光处。一笑寥寥空万古,风鸥语,迥然银汉横天宇。一笑寥寥空万古,风鸥语,迥然银汉横天宇。蝶梦南华方栩栩,珽珽谁跨丰干虎。而今忘却来时路,江山暮,天涯目送飞鸿去。而今忘却来时路,江山暮,天涯目送飞鸿去。
      原词
      此事楞严尝露布,梅花雪月交光处。一笑寥寥空万古,风瓯语,迥然银汉横天宇。蝶梦南华方栩栩,班班谁跨丰干虎。而今忘却来时路,江山暮,天涯目送飞鸿去。
      明奘法师解释:法常在入寂前的清晨,书《渔父词》于室门,就榻收足而逝?!独阊暇肪?载,波斯匿王自觉时光飞逝,生命短暂,身体逐年、逐月、逐日衰变,“刹那刹那,念念之间,不得停住”,深感生命虚幻,迁变无常。佛启发他,在变化的身体之中,有不生不灭的自性:“彼不变者,元无生灭?!辈ㄋ鼓渫跏艽丝?,当下大悟。梅花雪月,都是纯白之色,三者交光互映,是澄明的极境。参透生死之理的诗人,对肉身的寂灭付诸一笑,因为他感悟到,在风铃铁马声中,不正是有“这个”在!璀璨银河,横亘天宇,个体生命与宇宙法性合而为一。生命如同蝶梦,蝶化人,人化蝶,本无区别,贵在有栩栩自得的心境。那跨在丰干虎上的,不正是支配“六和合”的“一精明”?诗人借用寒山“十年归不得,忘却来时道”成句,说自己多年没有回家,如今连以前来这里的路,都忘得一干二净。这是因为自己沉潜于不断的修行之中,连生命的足迹都已忘却,达到了毫无粘著的境界。结二句透露出“手挥五弦,目送归鸿”的高情远韵,鸿飞冥冥,象喻自性冲破器世间的牢网,而翱翔于自由自在的禅悟境域。禅师对生命的审视,宁谧、从容、安祥、明净,生命的逝去,犹如寒潭雁影,雁去而潭不留影,“留”下的只是亘古的澄明。

      -----------------------------------------------------------------------------------------------
      专辑曲目:
      01.楞严一笑
      02.观音菩萨如秋月
      03.寒山诗
      04.观音偈
      05.般若三昧
      06.忆念观世音
      07.清凉行
      08.观音菩萨悲赞
      09.寒山僧踪
      10.三宝颂
      11.走啊走
      12.观音偶(现代版)

      Exact Audio Copy V1.3 from 2. September 2016

      EAC 抓取日志文件从3. 七月 2019, 20:05

      黄帅(明音居士) / 楞严一笑

      使用驱动器  :TEAC    DW-224E-A   Adapter: 1  ID: 0

      读取模式      : 可靠Secure
      使用精确流     : 是
      清空音频缓存    : 是
      使用 C2 指示器 : 是

      读取偏移校正:               : 102
      读取 Lead-In 和 Lead-Out : 否
      用静音填充抓取中丢失偏移的采样       : 是
      去除首尾静音块               : 否
      在CRC 计算中使用了空样本       : 是
      已用接口                  : Win NT 及 2000 本地 Win32 接口

      所用输出模式: : 内部 WAV 函数
      样本格式    : 44.100 Hz; 16 Bit; 立体声


      已抓取 CD 的 TOC

           音轨 |    起始    |    长度    |  起始扇区  |  结束扇区  
          --------------------------------------------
            1 |  0:00.00 |  2:08.34 |      0 |   9633
            2 |  2:08.34 |  4:50.12 |   9634 |  31395
            3 |  6:58.46 |  5:23.03 |  31396 |  55623
            4 | 12:21.49 |  4:30.20 |  55624 |  75893
            5 | 16:51.69 |  4:25.31 |  75894 |  95799
            6 | 21:17.25 |  4:22.16 |  95800 | 115465
            7 | 25:39.41 |  3:08.73 | 115466 | 129638
            8 | 28:48.39 |  4:00.37 | 129639 | 147675
            9 | 32:49.01 |  4:33.51 | 147676 | 168201
           10 | 37:22.52 |  2:06.22 | 168202 | 177673
           11 | 39:28.74 |  4:01.45 | 177674 | 195793
           12 | 43:30.44 |  4:52.20 | 195794 | 217713


      范围状态及错误

      已选择范围

           文件名 F:\HIFI音乐\禅乐\楞严一笑-黄帅\黄帅(明音居士) - 楞严一笑.wav

           峰值电平 94.4 %
           抓取速度 1.8 X
           范围质量 100.0 %
           复制 CRC CCA6BC86
           复制成功

      没有错误发生


      AccurateRip 摘要

      音轨  1  在数据库中不存在
      音轨  2  在数据库中不存在
      音轨  3  在数据库中不存在
      音轨  4  在数据库中不存在
      音轨  5  在数据库中不存在
      音轨  6  在数据库中不存在
      音轨  7  在数据库中不存在
      音轨  8  在数据库中不存在
      音轨  9  在数据库中不存在
      音轨 10  在数据库中不存在
      音轨 11  在数据库中不存在
      音轨 12  在数据库中不存在

      没有任何音轨在 AccurateRip 数据库中有记录

      状态报告结尾

      ---- CUETools DB Plugin V2.1.6

      [CTDB TOCID: 9gXwlArVzoIhDfFL20Q_HFHDFX8-] found
      Submit result: already submitted
      Track | CTDB Status
        1   | (1/1) Accurately ripped
        2   | (1/1) Accurately ripped
        3   | (1/1) Accurately ripped
        4   | (1/1) Accurately ripped
        5   | (1/1) Accurately ripped
        6   | (1/1) Accurately ripped
        7   | (1/1) Accurately ripped
        8   | (1/1) Accurately ripped
        9   | (1/1) Accurately ripped
      10   | (1/1) Accurately ripped
      11   | (1/1) Accurately ripped
      12   | (1/1) Accurately ripped
      游客,如果您要查看本帖隐藏内容请回复


      评分

      参与人数 1CD +240 收起 理由
      最终之战 + 240 感谢分享资源,CD包因你而精彩.

      查看全部评分





      BN原抓:晨曦光廊《Try to talk with ourselves》/ 整轨WAV/BD
      原抓:苏见信单飞第一张专辑《信 感谢...
      您需要登录后才可以回帖 登录 | 注册

      本版积分规则

      快速回复 返回顶部 返回列表
      最精准免费平特一肖-最精准平特一肖-最快开奖报码