<th id="thxwy"><option id="thxwy"></option></th>

      <tr id="thxwy"></tr>

    1. 最近看过此主题的会员

      查看: 232|回复: 0
      打印 上一主题 下一主题

      [华语] 原抓:苏见信单飞第一张专辑《信 感谢...

      [复制链接]

      13

      主题

      87

      帖子

      3275

      积分

      当红偶像

      Rank: 4

      积分
      3275
      跳转到指定楼层
      1#
      发表于 2019-7-6 20:52:13 | 只看该作者 |只看大图 回帖奖励 |倒序浏览 |阅读模式

      注册会员,获得无损资源下载地址,享受高品质音乐。

      您需要 登录 才可以下载或查看,没有帐号?注册

      x
      本帖最后由 wuqiang1011 于 2019-7-7 00:45 编辑


      信:
      台湾流行男歌手,前信乐团主唱。演唱时颇具感染力,因此拥有不少歌迷。2002年信乐团发行第一张专辑,凭着主唱信高亢的歌声走红。在信乐团担任主唱期间,共发行了三张音乐专辑、一张精选辑以及一张现场演唱专辑。于2007年单飞,以艺名“信”发行个人专辑。

      专辑曲目:
      01 如果还有明天(合唱:薛岳&柯有伦)
      02 让每个人都心碎
      03 痴痴的等
      04 爱情三十六计(合唱:小丸子)
      05 牵挂
      06 摆开烦恼
      07 变
      08 黑色柳丁
      09 让每个人都心碎(reprise)
      10 我期待(合唱:戴爱玲)
      11 棋王(象棋王主题曲)(合唱:Keith Stuart)
      12 你的背包

      -----------------------------------------------------------------------------------------------------
      Exact Audio Copy V1.3 from 2. September 2016

      EAC 抓取日志文件从6. 七月 2019, 1:52

      信 / 感谢自选辑

      使用驱动器  :TEAC    DW-224E-V   Adapter: 1  ID: 0

      读取模式      : 可靠Secure
      使用精确流     : 是
      清空音频缓存    : 是
      使用 C2 指示器 : 是

      读取偏移校正:               : 102
      读取 Lead-In 和 Lead-Out : 是
      用静音填充抓取中丢失偏移的采样       : 是
      去除首尾静音块               : 否
      在CRC 计算中使用了空样本       : 是
      已用接口                  : Win NT 及 2000 本地 Win32 接口

      所用输出模式: : 内部 WAV 函数
      样本格式    : 44.100 Hz; 16 Bit; 立体声


      已抓取 CD 的 TOC

           音轨 |    起始    |    长度    |  起始扇区  |  结束扇区  
          --------------------------------------------
            1 |  0:00.00 |  5:39.60 |      0 |  25484
            2 |  5:39.60 |  5:17.42 |  25485 |  49301
            3 | 10:57.27 |  4:47.72 |  49302 |  70898
            4 | 15:45.24 |  3:45.62 |  70899 |  87835
            5 | 19:31.11 |  5:21.73 |  87836 | 111983
            6 | 24:53.09 |  3:30.29 | 111984 | 127762
            7 | 28:23.38 |  4:40.17 | 127763 | 148779
            8 | 33:03.55 |  4:36.53 | 148780 | 169532
            9 | 37:40.33 |  2:45.47 | 169533 | 181954
           10 | 40:26.05 |  5:00.42 | 181955 | 204496
           11 | 45:26.47 |  4:04.07 | 204497 | 222803
           12 | 49:30.54 |  3:10.64 | 222804 | 237117


      范围状态及错误

      已选择范围

           文件名 F:\HIFI音乐\信信-感谢自选辑\信 - 感谢自选辑.wav

           峰值电平 98.9 %
           抓取速度 3.8 X
           范围质量 100.0 %
           复制 CRC 39EDA0EB
           复制成功

      没有错误发生

      状态报告结尾

      ---- CUETools DB Plugin V2.1.6

      [CTDB TOCID: yXHhn1APENxWmVEnXIrwUk__weA-] found
      Submit result: yXHhn1APENxWmVEnXIrwUk__weA- has been confirmed
      Track | CTDB Status
        1   | (21/21) Accurately ripped
        2   | (21/21) Accurately ripped
        3   | (21/21) Accurately ripped
        4   | (21/21) Accurately ripped
        5   | (21/21) Accurately ripped
        6   | (21/21) Accurately ripped
        7   | (19/21) Accurately ripped
        8   | (19/21) Accurately ripped
        9   | (19/21) Accurately ripped
      10   | (21/21) Accurately ripped
      11   | (20/21) Accurately ripped
      12   | (20/21) Accurately ripped
      游客,如果您要查看本帖隐藏内容请回复


      评分

      参与人数 1CD +240 收起 理由
      最终之战 + 240

      查看全部评分





      原抓:不一样的禅乐《楞严一笑》黄帅作品整轨WAV/BD
      BN原抓:ゲド戦記(地海战记) 电影原声/整轨WAV/BD
      您需要登录后才可以回帖 登录 | 注册

      本版积分规则

      快速回复 返回顶部 返回列表
      最精准免费平特一肖-最精准平特一肖-最快开奖报码