<th id="thxwy"><option id="thxwy"></option></th>

      <tr id="thxwy"></tr>

    1. 最近看过此主题的会员

      查看: 273|回复: 1
      打印 上一主题 下一主题

      [日韩] BN原抓:ゲド戦記(地海战记) 电影原声/整轨WAV/BD

      [复制链接]

      42

      主题

      585

      帖子

      1万

      积分

      人气天王

      Rank: 5Rank: 5

      积分
      10928

      社区QQ达人

      跳转到指定楼层
      1#
      发表于 2019-7-11 21:19:42 | 只看该作者 |只看大图 回帖奖励 |倒序浏览 |阅读模式

      注册会员,获得无损资源下载地址,享受高品质音乐。

      您需要 登录 才可以下载或查看,没有帐号?注册

      x


      宫崎吾朗导演动画电影《地海战记》原声音乐专辑。
      音乐:寺岛民哉 。

      曲目 :
      1. 異変~竜
      2. 黄昏の兆し
      3. ハイタカ~逃亡者
      4. 旅路
      5. 街
      6. 迷い~追われる者
      7. 軛
      8. 野へ
      9. クモ
      10. 大地の人
      11. 棘と傷心~悪党
      12. 追憶~老店主の忠告
      13. 挿入歌「テルーの唄」 映画バージョン(アカペラ) 歌/手嶌 葵
      14. 別れ~影の恐怖
      15. 強奪~不死の誘惑
      16. 急行~対峙
      17. 光と影
      18. 真の名~目覚め
      19. 死の呪い~狂気
      20. 命の火
      21. 終わりと始まり~主題歌「時の歌」 歌/手嶌葵~エンディング

      ************************分割线*************************
      Exact Audio Copy V1.2 from 12. August 2016


      EAC 抓取日志文件从19. 六月 2019, 12:03


      寺嶋民哉 / ゲド戦記


      使用驱动器  :PLDS    DVDROM DH16D6SH   Adapter: 1  ID: 0


      读取模式      : 可靠Secure
      使用精确流     : 是
      清空音频缓存    : 是
      使用 C2 指示器 : 否


      读取偏移校正:               : 6
      读取 Lead-In 和 Lead-Out : 否
      用静音填充抓取中丢失偏移的采样       : 是
      去除首尾静音块               : 否
      在CRC 计算中使用了空样本       : 是
      已用接口                  : Win NT 及 2000 本地 Win32 接口


      所用输出模式: : 内部 WAV 函数
      样本格式    : 44.100 Hz; 16 Bit; 立体声

      已抓取 CD 的 TOC


           音轨 |    起始    |    长度    |  起始扇区  |  结束扇区  
          --------------------------------------------
            1 |  0:00.00 |  2:30.64 |      0 |  11313
            2 |  2:30.64 |  2:21.12 |  11314 |  21900
            3 |  4:52.01 |  2:45.24 |  21901 |  34299
            4 |  7:37.25 |  3:42.16 |  34300 |  50965
            5 | 11:19.41 |  1:30.29 |  50966 |  57744
            6 | 12:49.70 |  3:38.53 |  57745 |  74147
            7 | 16:28.48 |  2:05.48 |  74148 |  83570
            8 | 18:34.21 |  1:34.09 |  83571 |  90629
            9 | 20:08.30 |  2:36.20 |  90630 | 102349
           10 | 22:44.50 |  3:10.25 | 102350 | 116624
           11 | 25:55.00 |  3:32.12 | 116625 | 132536
           12 | 29:27.12 |  2:30.49 | 132537 | 143835
           13 | 31:57.61 |  2:31.23 | 143836 | 155183
           14 | 34:29.09 |  2:41.10 | 155184 | 167268
           15 | 37:10.19 |  5:00.70 | 167269 | 189838
           16 | 42:11.14 |  4:57.27 | 189839 | 212140
           17 | 47:08.41 |  3:40.08 | 212141 | 228648
           18 | 50:48.49 |  4:55.10 | 228649 | 250783
           19 | 55:43.59 |  7:24.02 | 250784 | 284085
           20 | 63:07.61 |  2:08.45 | 284086 | 293730
           21 | 65:16.31 |  8:36.27 | 293731 | 332457

      范围状态及错误


      已选择范围


           文件名 E:\自购CD\ゲド戦記\寺嶋民哉 - ゲド戦記.wav


           峰值电平 98.1 %
           抓取速度 3.3 X
           范围质量 100.0 %
           复制 CRC 8748FD08
           复制成功


      没有错误发生

      AccurateRip 摘要

      音轨  1  精确地校准抓取  4)  [56A36753]  (AR v2)
      音轨  2  精确地校准抓取  4)  [F51A4B3C]  (AR v2)
      音轨  3  精确地校准抓取  4)  [2BD8FF05]  (AR v2)
      音轨  4  精确地校准抓取  4)  [6E45CF74]  (AR v2)
      音轨  5  精确地校准抓取  4)  [522CCFCB]  (AR v2)
      音轨  6  精确地校准抓取  4)  [4721EEA1]  (AR v2)
      音轨  7  精确地校准抓取  4)  [E6C23B73]  (AR v2)
      音轨  8  精确地校准抓取  4)  [82EF3F28]  (AR v2)
      音轨  9  精确地校准抓取  4)  [0EAE6DE6]  (AR v2)
      音轨 10  精确地校准抓取  4)  [849B4EC2]  (AR v2)
      音轨 11  精确地校准抓取  4)  [394E48E4]  (AR v2)
      音轨 12  精确地校准抓取  4)  [30B44B1F]  (AR v2)
      音轨 13  精确地校准抓取  4)  [635824EC]  (AR v2)
      音轨 14  精确地校准抓取  4)  [35DF6F3F]  (AR v2)
      音轨 15  精确地校准抓取  4)  [30D31DC3]  (AR v2)
      音轨 16  精确地校准抓取  4)  [2E5CC616]  (AR v2)
      音轨 17  精确地校准抓取  4)  [B01E7778]  (AR v2)
      音轨 18  精确地校准抓取  4)  [68231BFB]  (AR v2)
      音轨 19  精确地校准抓取  4)  [014FBEFB]  (AR v2)
      音轨 20  精确地校准抓取  4)  [07F0E3D6]  (AR v2)
      音轨 21  精确地校准抓取  4)  [09A518CA]  (AR v2)

      所有音轨精确校准抓取


      状态报告结尾


      ---- CUETools DB Plugin V2.1.6


      [CTDB TOCID: 6TX3T2MQiKUJiBOGXVvv7tn.ig4-] found
      Submit result: 6TX3T2MQiKUJiBOGXVvv7tn.ig4- has been confirmed
      Track | CTDB Status
        1   | ( 10/100) Accurately ripped, or (56/100) differs in 308 samples @00:00:26-00:00:27,02:30:08
        2   | ( 10/100) Accurately ripped, or (56/100) differs in 354 samples @00:00:16-00:00:17,02:20:31-02:20:32
        3   | ( 11/100) Accurately ripped, or (56/100) differs in 435 samples @00:00:16,02:43:54-02:43:55
        4   | ( 11/100) Accurately ripped, or (56/100) differs in 389 samples @00:00:26,03:41:11-03:41:12
        5   | ( 11/100) Accurately ripped, or (56/100) differs in 385 samples @00:00:26-00:00:27,01:28:59-01:28:61
        6   | ( 11/100) Accurately ripped, or (56/100) differs in 463 samples @00:00:26-00:00:27,03:37:10-03:37:11
        7   | ( 11/100) Accurately ripped, or (56/100) differs in 442 samples @00:00:27,02:04:10-02:04:11
        8   | ( 11/100) Accurately ripped, or (56/100) differs in 462 samples @00:00:27-00:00:28,01:32:37-01:32:39
        9   | ( 11/100) Accurately ripped, or (56/100) differs in 454 samples @00:00:26-00:00:27,02:34:51-02:34:53
      10   | ( 11/100) Accurately ripped, or (56/100) differs in 443 samples @00:00:26,03:08:57-03:08:58
      11   | ( 11/100) Accurately ripped, or (56/100) differs in 100 samples @00:00:26-00:00:27,03:30:39-03:30:40
      12   | ( 10/100) Accurately ripped, or (56/100) differs in 458 samples @00:00:26-00:00:28,02:28:47-02:28:49
      13   | ( 11/100) Accurately ripped, or (56/100) differs in 265 samples @00:00:27-00:00:28,02:30:15-02:30:16
      14   | ( 10/100) Accurately ripped, or (56/100) differs in 442 samples @00:00:26-00:00:28,02:40:02-02:40:04
      15   | ( 11/100) Accurately ripped, or (56/100) differs in 426 samples @00:00:26-00:00:27,04:59:25-04:59:26
      16   | ( 11/100) Accurately ripped, or (56/100) differs in 398 samples @00:00:26,04:55:56-04:55:57
      17   | ( 10/100) Accurately ripped, or (56/100) differs in 62 samples @00:00:27-00:00:28,03:38:34-03:38:35
      18   | ( 10/100) Accurately ripped, or (56/100) differs in 380 samples @00:00:26-00:00:27,04:53:47-04:53:48
      19   | ( 11/100) Accurately ripped, or (56/100) differs in 384 samples @00:00:26,07:22:35-07:22:37
      20   | ( 10/100) Accurately ripped, or (56/100) differs in 370 samples @00:00:27,02:07:00-02:07:01
      21   | ( 10/100) Accurately ripped, or (56/100) differs in 301 samples @00:00:27,07:04:41,08:36:02-08:36:03
      If you are sure that your rip contains errors, you can use CUETools to repair it.

      ==== 记录校验日志 A130CB6D2AF4C5182417F1BF89C6D4D7C83C5A3F73FB2DAB0E84F709DF245876 ====
      ************************分割线*************************

      游客,如果您要查看本帖隐藏内容请回复

      评分

      参与人数 1CD +240 收起 理由
      最终之战 + 240 感谢分享资源,CD包因你而精彩.

      查看全部评分





      原抓:苏见信单飞第一张专辑《信 感谢...
      原抓:2004年专辑《左麟右李》整轨WAV/BD

      1

      主题

      1337

      帖子

      1282

      积分

      VIP3

      Rank: 6Rank: 6

      积分
      1282
      2#
      发表于 2019-7-12 00:34:27 | 只看该作者
      差点以为是宫崎骏的呢
      您需要登录后才可以回帖 登录 | 注册

      本版积分规则

      快速回复 返回顶部 返回列表
      最精准免费平特一肖-最精准平特一肖-最快开奖报码