<th id="thxwy"><option id="thxwy"></option></th>

      <tr id="thxwy"></tr>

    1. 最近看过此主题的会员

      查看: 298|回复: 1
      打印 上一主题 下一主题

      [华语] 原抓:2004年专辑《左麟右李》整轨WAV/BD

      [复制链接]

      13

      主题

      88

      帖子

      3278

      积分

      当红偶像

      Rank: 4

      积分
      3278
      跳转到指定楼层
      1#
      发表于 2019-7-12 20:34:57 | 只看该作者 |只看大图 回帖奖励 |倒序浏览 |阅读模式

      注册会员,获得无损资源下载地址,享受高品质音乐。

      您需要 登录 才可以下载或查看,没有帐号?注册

      x
      本帖最后由 wuqiang1011 于 2019-7-13 00:46 编辑


      《左麟右李》是香港音乐组合左麟右李于2003年发行的一张粤语专辑。专辑总共12首歌,5首原唱,7首翻唱。

      专辑大碟共有12首歌,包括主打歌《嗱嗱声》及《老友纪》、翻唱的七首歌曲,碟内还收录了李克勤为电影《无间道III—终极无间》创作的主题曲《自作自受》。
      专辑唱片封套寓意是左麟右李精心炮制好歌给知音人,灵感取材自厨房,由摄影师张文华操刀,两人尽情发挥多款趣怪表情。
      Exact Audio Copy V1.3 from 2. September 2016
      EAC 抓取日志文件从12. 七月 2019, 19:49
      左麟右李 / 左麟右李
      使用驱动器  :TEAC    DW-224E-A   Adapter: 1  ID: 0
      读取模式      : 可靠Secure
      使用精确流     : 是
      清空音频缓存    : 是
      使用 C2 指示器 : 是
      读取偏移校正:               : 102
      读取 Lead-In 和 Lead-Out : 否
      用静音填充抓取中丢失偏移的采样       : 是
      去除首尾静音块               : 否
      在CRC 计算中使用了空样本       : 是
      已用接口                  : Win NT 及 2000 本地 Win32 接口
      所用输出模式: : 内部 WAV 函数
      样本格式    : 44.100 Hz; 16 Bit; 立体声

      已抓取 CD 的 TOC
           音轨 |    起始    |    长度    |  起始扇区  |  结束扇区  
          --------------------------------------------
            1 |  0:00.00 |  3:41.12 |      0 |  16586
            2 |  3:41.12 |  3:09.31 |  16587 |  30792
            3 |  6:50.43 |  3:53.36 |  30793 |  48303
            4 | 10:44.04 |  4:23.21 |  48304 |  68049
            5 | 15:07.25 |  3:40.60 |  68050 |  84609
            6 | 18:48.10 |  4:18.52 |  84610 | 104011
            7 | 23:06.62 |  3:53.08 | 104012 | 121494
            8 | 26:59.70 |  4:31.27 | 121495 | 141846
            9 | 31:31.22 |  4:30.41 | 141847 | 162137
           10 | 36:01.63 |  3:38.15 | 162138 | 178502
           11 | 39:40.03 |  6:01.29 | 178503 | 205606
           12 | 45:41.32 |  4:14.57 | 205607 | 224713

      范围状态及错误
      已选择范围
           文件名 F:\HIFI音乐\左麟右李\左麟右李 - 左麟右李.wav
           峰值电平 89.1 %
           抓取速度 1.8 X
           范围质量 100.0 %
           复制 CRC DE69E56A
           复制成功
      没有错误发生

      AccurateRip 摘要

      音轨  1  精确地校准抓取  2)  [80E0EBCE]  (AR v2)
      音轨  2  精确地校准抓取  2)  [4E4CE07F]  (AR v2)
      音轨  3  精确地校准抓取  2)  [57B97C45]  (AR v2)
      音轨  4  精确地校准抓取  2)  [F024A11D]  (AR v2)
      音轨  5  精确地校准抓取  2)  [32D69BDE]  (AR v2)
      音轨  6  精确地校准抓取  2)  [717640B3]  (AR v2)
      音轨  7  精确地校准抓取  2)  [B532EA5E]  (AR v2)
      音轨  8  精确地校准抓取  2)  [6496C488]  (AR v2)
      音轨  9  精确地校准抓取  2)  [9635DAF5]  (AR v2)
      音轨 10  精确地校准抓取  2)  [0181E8F2]  (AR v2)
      音轨 11  精确地校准抓取  2)  [2FBDC02A]  (AR v2)
      音轨 12  精确地校准抓取  2)  [E9CCA858]  (AR v2)

      所有音轨精确校准抓取
      状态报告结尾
      ---- CUETools DB Plugin V2.1.6
      [CTDB TOCID: .wMAeb1r8ZAgy6HqsCoHmmDM2RI-] found
      Submit result: already submitted
      Track | CTDB Status
        1   | (7/7) Accurately ripped
        2   | (7/7) Accurately ripped
        3   | (7/7) Accurately ripped
        4   | (7/7) Accurately ripped
        5   | (7/7) Accurately ripped
        6   | (7/7) Accurately ripped
        7   | (7/7) Accurately ripped
        8   | (7/7) Accurately ripped
        9   | (7/7) Accurately ripped
      10   | (7/7) Accurately ripped
      11   | (7/7) Accurately ripped
      12   | (5/7) Accurately ripped
      游客,如果您要查看本帖隐藏内容请回复


      评分

      参与人数 1CD +240 收起 理由
      最终之战 + 240 感谢分享资源,CD包因你而精彩.

      查看全部评分





      BN原抓:ゲド戦記(地海战记) 电影原声/整轨WAV/BD
      原抓:杨坤2005年专辑《2008》整轨/WAV/BD

      194

      主题

      1330

      帖子

      5万

      积分

      天王巨星

      Rank: 7Rank: 7Rank: 7

      积分
      54014

      社区QQ达人灌水勋章

      2#
      发表于 2019-7-13 08:10:03 | 只看该作者
      两个人搭档的比较默契,嗓子都不错
      您需要登录后才可以回帖 登录 | 注册

      本版积分规则

      快速回复 返回顶部 返回列表
      最精准免费平特一肖-最精准平特一肖-最快开奖报码