<th id="thxwy"><option id="thxwy"></option></th>

      <tr id="thxwy"></tr>

    1. 最近看过此主题的会员

      查看: 223|回复: 0
      打印 上一主题 下一主题

      [华语] 原抓:杨坤2005年专辑《2008》整轨/WAV/BD

      [复制链接]

      13

      主题

      87

      帖子

      3275

      积分

      当红偶像

      Rank: 4

      积分
      3275
      跳转到指定楼层
      1#
      发表于 2019-7-13 00:57:18 | 只看该作者 |只看大图 回帖奖励 |倒序浏览 |阅读模式

      注册会员,获得无损资源下载地址,享受高品质音乐。

      您需要 登录 才可以下载或查看,没有帐号?注册

      x

      专辑名称:2008
      歌手:杨坤
      资源格式:整轨WAV +套图+ LOG
      音乐风格:国语流行
      唱片版权公司:  北京竹书房文化传播有限公司提供版权
      唱片出版发行公司:江西文化文化音像出版社出版
                                  上海步升大风音乐文化传播有限公司发行
      发行时间:2005年8月1日
      UPC代码:9787884100675
      ISBN 7-88410-067-3

      专辑详介:
      《2008》展现了更多的自信、更多的音乐色彩,在编曲录音方面非常出色,无论是音色还是空间感都有耳目一新之感。与此同时,专辑的制作方向也没有偏离杨坤原有的特色?!段冶纫郧案拍肥恰段匏健返某錾难有?,这首歌强化了杨坤演绎成熟男人悲伤情歌的良好印象。专辑不曲高合寡,在提升杨坤音乐性的同时,也继续强化了杨坤的大众歌手的地位,是一张制作企划都很出色,明确的专辑。
      --------------------------------------------------------------------------------------------
      专辑曲目:
      01 2008
      02 Jeep情人
      03 我比从前更寂寞
      04 你别怕
      05 I Love You
      06 -3°
      07 花生
      08 Every Body
      09 花儿红
      10 城


      ------------------------------------------------------------------------------------------------
      Exact Audio Copy V1.3 from 2. September 2016

      EAC 抓取日志文件从12. 七月 2019, 21:32

      杨坤 / 2008

      使用驱动器  :TEAC    DW-224E-A   Adapter: 1  ID: 0

      读取模式      : 可靠Secure
      使用精确流     : 是
      清空音频缓存    : 是
      使用 C2 指示器 : 是

      读取偏移校正:               : 102
      读取 Lead-In 和 Lead-Out : 否
      用静音填充抓取中丢失偏移的采样       : 是
      去除首尾静音块               : 否
      在CRC 计算中使用了空样本       : 是
      已用接口                  : Win NT 及 2000 本地 Win32 接口

      所用输出模式: : 内部 WAV 函数
      样本格式    : 44.100 Hz; 16 Bit; 立体声


      已抓取 CD 的 TOC

           音轨 |    起始    |    长度    |  起始扇区  |  结束扇区  
          --------------------------------------------
            1 |  0:00.00 |  5:22.15 |      0 |  24164
            2 |  5:22.15 |  4:34.45 |  24165 |  44759
            3 |  9:56.60 |  4:57.25 |  44760 |  67059
            4 | 14:54.10 |  4:21.35 |  67060 |  86669
            5 | 19:15.45 |  4:43.18 |  86670 | 107912
            6 | 23:58.63 |  4:29.32 | 107913 | 128119
            7 | 28:28.20 |  4:14.18 | 128120 | 147187
            8 | 32:42.38 |  4:22.00 | 147188 | 166837
            9 | 37:04.38 |  3:21.52 | 166838 | 181964
           10 | 40:26.15 |  5:31.51 | 181965 | 206840


      范围状态及错误

      已选择范围

           文件名 F:\HIFI音乐\杨坤\杨坤 - 2008.wav

           峰值电平 98.5 %
           抓取速度 1.8 X
           范围质量 100.0 %
           复制 CRC E0949676
           复制成功

      没有错误发生


      AccurateRip 摘要

      音轨  1  在数据库中不存在
      音轨  2  在数据库中不存在
      音轨  3  在数据库中不存在
      音轨  4  在数据库中不存在
      音轨  5  在数据库中不存在
      音轨  6  在数据库中不存在
      音轨  7  在数据库中不存在
      音轨  8  在数据库中不存在
      音轨  9  在数据库中不存在
      音轨 10  在数据库中不存在

      没有任何音轨在 AccurateRip 数据库中有记录

      状态报告结尾

      ---- CUETools DB Plugin V2.1.6

      [CTDB TOCID: dK7UyUG.Q6j8YtLn1cjKSlct7pM-] found
      Submit result: dK7UyUG.Q6j8YtLn1cjKSlct7pM- has been confirmed
      Track | CTDB Status
        1   | (2/2) Accurately ripped
        2   | (2/2) Accurately ripped
        3   | (2/2) Accurately ripped
        4   | (2/2) Accurately ripped
        5   | (2/2) Accurately ripped
        6   | (2/2) Accurately ripped
        7   | (2/2) Accurately ripped
        8   | (2/2) Accurately ripped
        9   | (2/2) Accurately ripped
      10   | (2/2) Accurately ripped
      游客,如果您要查看本帖隐藏内容请回复


      评分

      参与人数 1CD +240 收起 理由
      最终之战 + 240 感谢分享资源,CD包因你而精彩.

      查看全部评分





      原抓:2004年专辑《左麟右李》整轨WAV/BD
      盼盼原抓:罗大佑《恋曲2000》1994/WAV/分轨/BD
      您需要登录后才可以回帖 登录 | 注册

      本版积分规则

      快速回复 返回顶部 返回列表
      最精准免费平特一肖-最精准平特一肖-最快开奖报码