<th id="thxwy"><option id="thxwy"></option></th>

      <tr id="thxwy"></tr>

    1. 最近看过此主题的会员

      查看: 214|回复: 0
      打印 上一主题 下一主题

      [华语] 原抓:品冠《那些女孩教我的事》整轨/WAV/BD

      [复制链接]

      13

      主题

      87

      帖子

      3034

      积分

      当红偶像

      Rank: 4

      积分
      3034
      跳转到指定楼层
      1#
      发表于 2019-7-14 22:46:44 | 只看该作者 |只看大图 回帖奖励 |倒序浏览 |阅读模式

      注册会员,获得无损资源下载地址,享受高品质音乐。

      您需要 登录 才可以下载或查看,没有帐号?注册

      x
      品冠/光良的歌听起来总是那么清新,夏天用来将降温吧。

      Exact Audio Copy V1.3 from 2. September 2016
      EAC 抓取日志文件从14. 七月 2019, 20:11
      品冠 / 那些女孩教我的事
      使用驱动器  :TEAC    CD-W28E   Adapter: 1  ID: 0
      读取模式      : 可靠Secure
      使用精确流     : 是
      清空音频缓存    : 是
      使用 C2 指示器 : 是
      读取偏移校正:               : 685
      读取 Lead-In 和 Lead-Out : 否
      用静音填充抓取中丢失偏移的采样       : 是
      去除首尾静音块               : 否
      在CRC 计算中使用了空样本       : 是
      已用接口                  : Win NT 及 2000 本地 Win32 接口
      所用输出模式: : 内部 WAV 函数
      样本格式    : 44.100 Hz; 16 Bit; 立体声

      已抓取 CD 的 TOC
           音轨 |    起始    |    长度    |  起始扇区  |  结束扇区  
          --------------------------------------------
            1 |  0:00.00 |  4:14.07 |      0 |  19056
            2 |  4:14.07 |  5:00.18 |  19057 |  41574
            3 |  9:14.25 |  4:22.17 |  41575 |  61241
            4 | 13:36.42 |  4:23.28 |  61242 |  80994
            5 | 17:59.70 |  4:00.25 |  80995 |  99019
            6 | 22:00.20 |  3:34.47 |  99020 | 115116
            7 | 25:34.67 |  3:35.20 | 115117 | 131261
            8 | 29:10.12 |  3:45.70 | 131262 | 148206
            9 | 32:56.07 |  3:33.70 | 148207 | 164251
           10 | 36:30.02 |  3:46.33 | 164252 | 181234
           11 | 40:16.35 |  3:50.15 | 181235 | 198499

      范围状态及错误
      已选择范围
           文件名 F:\HIFI音乐\无印良品\品冠-那些女孩教我的事\品冠 - 那些女孩教我的事.wav
           峰值电平 99.8 %
           抓取速度 1.8 X
           范围质量 100.0 %
           复制 CRC BCE66C0C
           复制成功
      没有错误发生

      AccurateRip 摘要

      音轨  1  精确地校准抓取  3)  [2B324CBD]  (AR v2)
      音轨  2  精确地校准抓取  3)  [788C5DCE]  (AR v2)
      音轨  3  精确地校准抓取  3)  [8F225E51]  (AR v2)
      音轨  4  精确地校准抓取  3)  [72954B23]  (AR v2)
      音轨  5  精确地校准抓取  3)  [C61C702E]  (AR v2)
      音轨  6  精确地校准抓取  3)  [7616376B]  (AR v2)
      音轨  7  精确地校准抓取  3)  [83AA6599]  (AR v2)
      音轨  8  精确地校准抓取  3)  [0A636218]  (AR v2)
      音轨  9  精确地校准抓取  3)  [168D71EF]  (AR v2)
      音轨 10  精确地校准抓取  3)  [9851A4C4]  (AR v2)
      音轨 11  精确地校准抓取  3)  [E3226E1C]  (AR v2)

      所有音轨精确校准抓取
      状态报告结尾
      ---- CUETools DB Plugin V2.1.6
      [CTDB TOCID: _OiVnYxyvVRPvxpCEedTZe54BtY-] found
      Submit result: _OiVnYxyvVRPvxpCEedTZe54BtY- has been confirmed
      Track | CTDB Status
        1   | (15/15) Accurately ripped
        2   | (15/15) Accurately ripped
        3   | (15/15) Accurately ripped
        4   | (15/15) Accurately ripped
        5   | (15/15) Accurately ripped
        6   | (15/15) Accurately ripped
        7   | (15/15) Accurately ripped
        8   | (15/15) Accurately ripped
        9   | (15/15) Accurately ripped
      10   | (15/15) Accurately ripped
      11   | (15/15) Accurately ripped
      游客,如果您要查看本帖隐藏内容请回复


      评分

      参与人数 1CD +240 收起 理由
      最终之战 + 240 感谢分享资源,CD包因你而精彩.

      查看全部评分





      盼盼原抓:罗大佑《叫做你叫做我》2109/2CD限量版/WAV/BD
      原抓:草蜢《草蜢-醇经典》整轨/WAV/BD
      您需要登录后才可以回帖 登录 | 注册

      本版积分规则

      快速回复 返回顶部 返回列表
      最精准免费平特一肖-最精准平特一肖-最快开奖报码