<th id="thxwy"><option id="thxwy"></option></th>

      <tr id="thxwy"></tr>

    1. 最近看过此主题的会员

      查看: 385|回复: 1
      打印 上一主题 下一主题

      [华语] 原抓:草蜢《草蜢-醇经典》整轨/WAV/BD

      [复制链接]

      13

      主题

      88

      帖子

      3278

      积分

      当红偶像

      Rank: 4

      积分
      3278
      跳转到指定楼层
      1#
      发表于 2019-7-14 22:56:14 | 只看该作者 |只看大图 回帖奖励 |倒序浏览 |阅读模式

      注册会员,获得无损资源下载地址,享受高品质音乐。

      您需要 登录 才可以下载或查看,没有帐号?注册

      x

      官方的DSD转制版本,舞曲偏多,听的感觉还是可以的,当年可以和小虎队PK的唱跳组合。

      Exact Audio Copy V1.3 from 2. September 2016

      EAC 抓取日志文件从14. 七月 2019, 19:26

      草蜢 / 草蜢:醇经典

      使用驱动器  :TEAC    CD-W28E   Adapter: 1  ID: 0

      读取模式      : 可靠Secure
      使用精确流     : 是
      清空音频缓存    : 是
      使用 C2 指示器 : 是

      读取偏移校正:               : 685
      读取 Lead-In 和 Lead-Out : 否
      用静音填充抓取中丢失偏移的采样       : 是
      去除首尾静音块               : 否
      在CRC 计算中使用了空样本       : 是
      已用接口                  : Win NT 及 2000 本地 Win32 接口

      所用输出模式: : 内部 WAV 函数
      样本格式    : 44.100 Hz; 16 Bit; 立体声


      已抓取 CD 的 TOC

           音轨 |    起始    |    长度    |  起始扇区  |  结束扇区  
          --------------------------------------------
            1 |  0:00.00 |  4:23.63 |      0 |  19787
            2 |  4:23.63 |  3:45.52 |  19788 |  36714
            3 |  8:09.40 |  2:54.07 |  36715 |  49771
            4 | 11:03.47 |  4:29.31 |  49772 |  69977
            5 | 15:33.03 |  4:03.46 |  69978 |  88248
            6 | 19:36.49 |  2:55.22 |  88249 | 101395
            7 | 22:31.71 |  3:54.60 | 101396 | 119005
            8 | 26:26.56 |  4:57.27 | 119006 | 141307
            9 | 31:24.08 |  4:25.68 | 141308 | 161250
           10 | 35:50.01 |  4:08.43 | 161251 | 179893
           11 | 39:58.44 |  4:50.25 | 179894 | 201668
           12 | 44:48.69 |  4:01.06 | 201669 | 219749
           13 | 48:50.00 |  3:29.35 | 219750 | 235459
           14 | 52:19.35 |  4:37.45 | 235460 | 256279
           15 | 56:57.05 |  4:03.25 | 256280 | 274529


      范围状态及错误

      已选择范围

           文件名 F:\HIFI音乐\草蜢\草蜢 - 草蜢-醇经典.wav

           峰值电平 100.0 %
           抓取速度 1.8 X
           范围质量 100.0 %
           复制 CRC 75400117
           复制成功

      没有错误发生


      AccurateRip 摘要

      音轨  1  不能准确地校验 (确认 2)  [06710021], 返回 AccurateRip [76882076]  (AR v2)
      音轨  2  不能准确地校验 (确认 2)  [3A385341], 返回 AccurateRip [F9409499]  (AR v2)
      音轨  3  不能准确地校验 (确认 2)  [E9B78AD5], 返回 AccurateRip [F6999B3D]  (AR v2)
      音轨  4  不能准确地校验 (确认 2)  [4C1AE647], 返回 AccurateRip [BBEB0062]  (AR v2)
      音轨  5  不能准确地校验 (确认 2)  [A86E8AB0], 返回 AccurateRip [A8E1E49D]  (AR v2)
      音轨  6  不能准确地校验 (确认 2)  [513D412B], 返回 AccurateRip [4F93C660]  (AR v2)
      音轨  7  不能准确地校验 (确认 2)  [58C669B0], 返回 AccurateRip [16E93546]  (AR v2)
      音轨  8  不能准确地校验 (确认 2)  [E2E4FA27], 返回 AccurateRip [403933A3]  (AR v2)
      音轨  9  不能准确地校验 (确认 2)  [AB4411D7], 返回 AccurateRip [865F0A0E]  (AR v2)
      音轨 10  不能准确地校验 (确认 2)  [690C4291], 返回 AccurateRip [8330801C]  (AR v2)
      音轨 11  不能准确地校验 (确认 2)  [73027C35], 返回 AccurateRip [F442C1C7]  (AR v2)
      音轨 12  不能准确地校验 (确认 2)  [6449F0E8], 返回 AccurateRip [F6000D22]  (AR v2)
      音轨 13  不能准确地校验 (确认 2)  [C61EE760], 返回 AccurateRip [2D5D633E]  (AR v2)
      音轨 14  不能准确地校验 (确认 2)  [110E375C], 返回 AccurateRip [CC3BECCA]  (AR v2)
      音轨 15  不能准确地校验 (确认 1)  [782BB5BE], 返回 AccurateRip [04F44EED]  (AR v2)

      没有音轨被准确核实
      你的版本可能与数据库的版本不同

      状态报告结尾

      ---- CUETools DB Plugin V2.1.6

      [CTDB TOCID: TocpSM1INEBXPZHKWVxnBzDEVCI-] found
      Submit result: TocpSM1INEBXPZHKWVxnBzDEVCI- has been confirmed
      Track | CTDB Status
        1   | (23/23) Accurately ripped
        2   | (23/23) Accurately ripped
        3   | (23/23) Accurately ripped
        4   | (23/23) Accurately ripped
        5   | (23/23) Accurately ripped
        6   | (23/23) Accurately ripped
        7   | (23/23) Accurately ripped
        8   | (23/23) Accurately ripped
        9   | (23/23) Accurately ripped
      10   | (23/23) Accurately ripped
      11   | (23/23) Accurately ripped
      12   | (23/23) Accurately ripped
      13   | (21/23) Accurately ripped
      14   | (23/23) Accurately ripped
      15   | (23/23) Accurately ripped


      数据库没有这个专辑?记得上次用另一个刻录机抓也是这个结果。
      游客,如果您要查看本帖隐藏内容请回复


      评分

      参与人数 2CD +245 收起 理由
      最终之战 + 240
      dzm770823 + 5 感谢分享资源,CD包因你而精彩.

      查看全部评分





      原抓:品冠《那些女孩教我的事》整轨/WAV/BD
      jarpomarx原抓:Whitesnake《Lovehunter》1979(Remastered-2006)FLAC/BD

      268

      主题

      1367

      帖子

      10万

      积分

      乐坛教父

      Rank: 8Rank: 8

      积分
      102232

      社区QQ达人

      2#
      发表于 2019-7-15 12:39:25 | 只看该作者
      感谢分享 精彩的音乐
      您需要登录后才可以回帖 登录 | 注册

      本版积分规则

      快速回复 返回顶部 返回列表
      最精准免费平特一肖-最精准平特一肖-最快开奖报码