<th id="thxwy"><option id="thxwy"></option></th>

      <tr id="thxwy"></tr>

    1. 最近看过此主题的会员

      查看: 2053|回复: 20
      打印 上一主题 下一主题

      [求资源] 求Evocation(招魂乐队)《天靈靈地靈靈》无损

      [复制链接]
      integral

      48

      主题

      177

      帖子

      6869

      积分

      人气天王

      Rank: 5Rank: 5

      积分
      6869
      跳转到指定楼层
      1#
      发表于 2017-9-23 01:59:16 | 只看该作者 |只看大图 回帖奖励 |倒序浏览 |阅读模式
      180CD

      上一个帖子手快直接确认了,结果不是无损(瀑布汗?。?/font>


      《天靈靈地靈靈》Evocation(招魂乐队)2013

      1. 戰.魂.序
      2. 越空復仇
      3. 兵荒馬亂
      4. 黃土
      5. 天靈靈 地靈靈
      6. 不滅皇朝
      7. 改朝換代
      8. 長生不死
      9. 神話

      各种无损格式均可,谢谢!

      来自群组: 金属圣殿

      最佳答案

      查看完整内容

      Evocation - Abracadabra FLAC+100%log 链接:http://pan.baidu.com/s/1eR9Oeye **** 本内容被作者隐藏 **** Track list: War. Soul. Sequence. The More Empty Revenge Hurried Retreat Loess Abracadabra Immortal Dynasty Regime Change Immortality Myth Exact Audio Copy V1.1 from 23. June 2015 EAC extraction logfile from 7. August 2017, 19:14 Evocation / Abracadabra Used drive : PIONEER BD-RW BDR ...




      求Barbra Streisand的专辑!
      求零壹乐队《voodoo kungfu》或《此岸》任意一张无损

      18

      主题

      154

      帖子

      6023

      积分

      人气天王

      Rank: 5Rank: 5

      积分
      6023

      社区QQ达人

      2#
      发表于 2017-9-23 01:59:17 | 只看该作者
      Evocation - Abracadabra FLAC+100%log

      链接:http://pan.baidu.com/s/1eR9Oeye

      游客,如果您要查看本帖隐藏内容请回复




      Track list:

      War. Soul. Sequence.
      The More Empty Revenge
      Hurried Retreat
      Loess
      Abracadabra
      Immortal Dynasty
      Regime Change
      Immortality
      Myth



      Exact Audio Copy V1.1 from 23. June 2015

      EAC extraction logfile from 7. August 2017, 19:14

      Evocation / Abracadabra

      Used drive  : PIONEER BD-RW   BDR-XD05   Adapter: 1  ID: 1

      Read mode               : Secure
      Utilize accurate stream : Yes
      Defeat audio cache      : Yes
      Make use of C2 pointers : No

      Read offset correction                      : 667
      Overread into Lead-In and Lead-Out          : No
      Fill up missing offset samples with silence : Yes
      Delete leading and trailing silent blocks   : No
      Null samples used in CRC calculations       : Yes
      Used interface                              : Native Win32 interface for Win NT & 2000
      Gap handling                                : Appended to previous track

      Used output format              : User Defined Encoder
      Selected bitrate                : 1024 kBit/s
      Quality                         : High
      Add ID3 tag                     : No
      Command line compressor         : C:\Program Files (x86)\Exact Audio Copy\FLAC\FLAC.EXE
      Additional command line options : -8 -V -T "ARTIST=%artist%" -T "TITLE=%title%" -T "ALBUM=%albumtitle%" -T "DATE=%year%" -T "TRACKNUMBER=%tracknr%" -T "GENRE=%genre%" -T "PERFORMER=%albuminterpret%" -T "COMPOSER=%composer%" %haslyrics%--tag-from-file=LYRICS="%lyricsfile%"%haslyrics% -T "ALBUMARTIST=%albumartist%" -T "DISCNUMBER=%cdnumber%" -T "TOTALDISCS=%totalcds%" -T "TOTALTRACKS=%numtracks%" -T "COMMENT=%comment%" %source% -o %dest%


      TOC of the extracted CD

           Track |   Start  |  Length  | Start sector | End sector
          ---------------------------------------------------------
              1  |  0:00.00 |  1:59.33 |         0    |     8957   
              2  |  1:59.33 |  4:59.36 |      8958    |    31418   
              3  |  6:58.69 |  4:21.41 |     31419    |    51034   
              4  | 11:20.35 |  6:12.17 |     51035    |    78951   
              5  | 17:32.52 |  6:23.36 |     78952    |   107712   
              6  | 23:56.13 |  5:49.48 |    107713    |   133935   
              7  | 29:45.61 |  4:50.16 |    133936    |   155701   
              8  | 34:36.02 |  3:25.71 |    155702    |   171147   
              9  | 38:01.73 |  6:05.36 |    171148    |   198558   


      Track  1

           Filename G:\My Storage\Music\New Lossless Rips\Black Metal\Evocation (My Own 100% FLAC Rips\(2013) Abracadabra\01 - War. Soul. Sequence.wav

           Pre-gap length  0:00:02.00

           Peak level 99.9 %
           Extraction speed 2.4 X
           Track quality 100.0 %
           Test CRC ECE6EB8D
           Copy CRC ECE6EB8D
           Accurately ripped (confidence 1)  [505A1D50]  (AR v2)
           Copy OK

      Track  2

           Filename G:\My Storage\Music\New Lossless Rips\Black Metal\Evocation (My Own 100% FLAC Rips\(2013) Abracadabra\02 - The More Empty Revenge.wav

           Peak level 99.9 %
           Extraction speed 3.1 X
           Track quality 100.0 %
           Test CRC 658052AC
           Copy CRC 658052AC
           Accurately ripped (confidence 1)  [F079D8F0]  (AR v2)
           Copy OK

      Track  3

           Filename G:\My Storage\Music\New Lossless Rips\Black Metal\Evocation (My Own 100% FLAC Rips\(2013) Abracadabra\03 - Hurried Retreat.wav

           Peak level 99.9 %
           Extraction speed 3.4 X
           Track quality 100.0 %
           Test CRC B3F6E296
           Copy CRC B3F6E296
           Accurately ripped (confidence 1)  [5672734E]  (AR v2)
           Copy OK

      Track  4

           Filename G:\My Storage\Music\New Lossless Rips\Black Metal\Evocation (My Own 100% FLAC Rips\(2013) Abracadabra\04 - Loess.wav

           Peak level 99.9 %
           Extraction speed 3.9 X
           Track quality 100.0 %
           Test CRC 1298A7D2
           Copy CRC 1298A7D2
           Accurately ripped (confidence 1)  [7E73B8EE]  (AR v2)
           Copy OK

      Track  5

           Filename G:\My Storage\Music\New Lossless Rips\Black Metal\Evocation (My Own 100% FLAC Rips\(2013) Abracadabra\05 - Abracadabra.wav

           Peak level 99.9 %
           Extraction speed 3.9 X
           Track quality 99.9 %
           Test CRC DB4453A5
           Copy CRC DB4453A5
           Accurately ripped (confidence 1)  [73923471]  (AR v2)
           Copy OK

      Track  6

           Filename G:\My Storage\Music\New Lossless Rips\Black Metal\Evocation (My Own 100% FLAC Rips\(2013) Abracadabra\06 - Immortal Dynasty.wav

           Peak level 99.9 %
           Extraction speed 4.2 X
           Track quality 100.0 %
           Test CRC 22F8DCD9
           Copy CRC 22F8DCD9
           Accurately ripped (confidence 1)  [BF2CEFFD]  (AR v2)
           Copy OK

      Track  7

           Filename G:\My Storage\Music\New Lossless Rips\Black Metal\Evocation (My Own 100% FLAC Rips\(2013) Abracadabra\07 - Regime Change.wav

           Peak level 99.9 %
           Extraction speed 4.6 X
           Track quality 100.0 %
           Test CRC 37CE01F5
           Copy CRC 37CE01F5
           Accurately ripped (confidence 1)  [B0810433]  (AR v2)
           Copy OK

      Track  8

           Filename G:\My Storage\Music\New Lossless Rips\Black Metal\Evocation (My Own 100% FLAC Rips\(2013) Abracadabra\08 - Immortality.wav

           Peak level 99.9 %
           Extraction speed 4.5 X
           Track quality 100.0 %
           Test CRC 342ED01D
           Copy CRC 342ED01D
           Accurately ripped (confidence 1)  [E0068C8E]  (AR v2)
           Copy OK

      Track  9

           Filename G:\My Storage\Music\New Lossless Rips\Black Metal\Evocation (My Own 100% FLAC Rips\(2013) Abracadabra\09 - Myth.wav

           Peak level 99.9 %
           Extraction speed 5.1 X
           Track quality 100.0 %
           Test CRC 6AE37A41
           Copy CRC 6AE37A41
           Accurately ripped (confidence 1)  [5E3F5632]  (AR v2)
           Copy OK


      All tracks accurately ripped

      No errors occurred

      End of status report

      ---- CUETools DB Plugin V2.1.6

      [CTDB TOCID: _fKY.HDH2TDJ0AyqpYgXqfKXSH0-] found
      Submit result: _fKY.HDH2TDJ0AyqpYgXqfKXSH0- has been confirmed
      Track | CTDB Status
        1   | (5/5) Accurately ripped
        2   | (5/5) Accurately ripped
        3   | (5/5) Accurately ripped
        4   | (4/5) Accurately ripped
        5   | (5/5) Accurately ripped
        6   | (5/5) Accurately ripped
        7   | (5/5) Accurately ripped
        8   | (5/5) Accurately ripped
        9   | (5/5) Accurately ripped


      ==== Log checksum 1E4EB3162987CBBF7A96C0B666F06CDCE3791E94D323061E81CB37BBE2D2C5E1 ====
      integral

      48

      主题

      177

      帖子

      6869

      积分

      人气天王

      Rank: 5Rank: 5

      积分
      6869
      3#
       楼主| 发表于 2017-9-23 15:52:12 | 只看该作者
      integral

      48

      主题

      177

      帖子

      6869

      积分

      人气天王

      Rank: 5Rank: 5

      积分
      6869
      4#
       楼主| 发表于 2017-9-25 19:22:44 | 只看该作者

      0

      主题

      51

      帖子

      727

      积分

      职业歌手

      Rank: 3Rank: 3

      积分
      727

      社区QQ达人

      5#
      发表于 2017-9-26 13:24:10 | 只看该作者
      朋友 你真厉害  这个专辑都找到

      31

      主题

      255

      帖子

      7246

      积分

      人气天王

      Rank: 5Rank: 5

      积分
      7246
      6#
      发表于 2017-9-27 16:03:20 | 只看该作者
      收了,谢谢                     

      7

      主题

      756

      帖子

      831

      积分

      职业歌手

      Rank: 3Rank: 3

      积分
      831

      社区QQ达人

      7#
      发表于 2017-10-10 11:10:15 | 只看该作者
      好东西,真不错 谢谢

      129

      主题

      1375

      帖子

      3万

      积分

      天王巨星

      Rank: 7Rank: 7Rank: 7

      积分
      33129
      8#
      发表于 2017-10-25 10:55:31 | 只看该作者
      天靈靈 地靈靈
      茅山师傅显真灵

      1

      主题

      8

      帖子

      220

      积分

      乐坛新星

      Rank: 2

      积分
      220

      社区QQ达人

      9#
      发表于 2018-6-24 17:39:14 | 只看该作者
      谢谢分享,14年看过一次现场真超棒!

      0

      主题

      165

      帖子

      280

      积分

      乐坛新星

      Rank: 2

      积分
      280
      10#
      发表于 2018-7-14 00:19:32 | 只看该作者
      fans from hk !!!! thanks

      0

      主题

      15

      帖子

      76

      积分

      新人会员,请认真回复,若恶意回复,直接封号

      Rank: 1

      积分
      76

      社区QQ达人

      11#
      发表于 2018-7-14 09:38:00 | 只看该作者
      谢谢楼主  找了好久的专辑  终于找到了!

      0

      主题

      81

      帖子

      108

      积分

      新人会员,请认真回复,若恶意回复,直接封号

      Rank: 1

      积分
      108
      12#
      发表于 2018-8-7 14:47:18 | 只看该作者
      感谢分享,太棒了~

      0

      主题

      40

      帖子

      155

      积分

      乐坛新星

      Rank: 2

      积分
      155

      社区QQ达人

      13#
      发表于 2018-8-9 13:46:15 | 只看该作者
      Evocation 支持 支持?。。。。。。。?!

      1

      主题

      282

      帖子

      317

      积分

      乐坛新星

      Rank: 2

      积分
      317
      14#
      发表于 2018-10-21 13:11:36 | 只看该作者
      谢谢分享,下载听听

      0

      主题

      28

      帖子

      103

      积分

      新人会员,请认真回复,若恶意回复,直接封号

      Rank: 1

      积分
      103
      15#
      发表于 2018-11-10 11:31:24 | 只看该作者
      感谢感谢 哈哈哈哈 正缺呢....
      您需要登录后才可以回帖 登录 | 注册

      本版积分规则

      快速回复 返回顶部 返回列表
      最精准免费平特一肖-最精准平特一肖-最快开奖报码